Our friends

The Wanted - Battleground 2011(POP)-mp3 torrent

Torrent info

Date 2011-11-08 13:47:10
Category Music
Hash 2f6df7af01a951ece51aa8da865f58450b6d8cf9
Seeds / Leechs -1 / -1 refresh
Full size 90 MB
Tracker http://pow7.com/scrape
Tags wanted battleground 2011
Download – The Wanted - Battleground 2011(POP)-mp3 Download direct – no client needed

Related torrents

Battleground 2011 DVDRiP XViD-LAZi
The Wanted - Lightning [2011-Single][SW]
The Wanted - Battleground 2011 only1joe 320MP3
The Wanted - Battleground 2011 only1joe FLAC-EAC

Torrent's content info

20 seconds audio samples

07 Rocket_sample.mp3
Audio file info Duration: 00:03:24.44, start: 0.000000, bitrate: 320 kb/s
Stream #0.0: Audio: mp3, 44100 Hz, 2 channels, s16, 320 kb/s
02 Lightning_sample.mp3
Audio file info Duration: 00:03:30.76, start: 0.000000, bitrate: 320 kb/s
Stream #0.0: Audio: mp3, 44100 Hz, 2 channels, s16, 320 kb/s
10 Lie To Me_sample.mp3
Audio file info Duration: 00:03:50.98, start: 0.000000, bitrate: 320 kb/s
Stream #0.0: Audio: mp3, 44100 Hz, 2 channels, s16, 320 kb/s
08 I Want It All_sample.mp3
Audio file info Duration: 00:03:28.09, start: 0.000000, bitrate: 320 kb/s
Stream #0.0: Audio: mp3, 44100 Hz, 2 channels, s16, 320 kb/s

Contents of download:

90 megabyte in 14 files
The Wanted - Battleground 2011(POP)-mp3
  • The Wanted - Battleground [2011]/00._The Wanted_-_Battleground.m3u (0.6 KB)
  • The Wanted - Battleground [2011]/01 Glad You Came.mp3 (7.8 MB)
  • The Wanted - Battleground [2011]/02 Lightning.mp3 (8 MB)
  • The Wanted - Battleground [2011]/03 Warzone.mp3 (8.6 MB)
  • The Wanted - Battleground [2011]/04 Invincible.mp3 (7.5 MB)
  • The Wanted - Battleground [2011]/05 Last To Know.mp3 (8.4 MB)
  • The Wanted - Battleground [2011]/06 I'll Be Your Strength.mp3 (8.1 MB)
  • The Wanted - Battleground [2011]/07 Rocket.mp3 (7.8 MB)
  • The Wanted - Battleground [2011]/08 I Want It All.mp3 (7.9 MB)
  • The Wanted - Battleground [2011]/09 The Weekend.mp3 (7.4 MB)
  • The Wanted - Battleground [2011]/10 Lie To Me.mp3 (8.8 MB)
  • The Wanted - Battleground [2011]/11 Gold Forever.mp3 (9.4 MB)
  • The Wanted - Battleground [2011]/Ablum Artwork.jpg (0.1 MB)
  • The Wanted - Battleground [2011]/CD Retail.jpg (0.4 MB)

Comments:


Add report or comment (250 words maximum)

I'd like:  
Type text from captcha: