Our friends

Korn - Narcissistic Cannibal 2011 (single mp3 320 kbps) torrent

Torrent info

Date 2011-11-08 13:49:45
Category Music
Hash 665ca35767f1041c2c4bfdda2ceb58fbc7091f8d
Seeds / Leechs -1 / -1 refresh
Full size 17 MB
Tracker http://a.tracker.prq.to/scrape
Tags korn narcissistic cannibal 2011 single kbps

Related torrents

Britney Spears - Hold It Against Me [2011-Single][MJN]
The Lonely Island - The Creep (ft Nicki Minaj) [2011-Single][MJ
Chris Brown - Look At Me Now (ft Lil Wayne) [2011-Single][MJN]
Staysman og Lazz - Uten Sko (Single - 2011) 320 kbps

Torrent's content info

20 seconds audio samples

01 - Narcissistic Cannibal_sample.mp3
Audio file info Duration: 00:03:12.83, start: 0.000000, bitrate: 334 kb/s
Stream #0.0: Audio: mp3, 44100 Hz, 2 channels, s16, 320 kb/s
02 - Narcissistic Cannibal (Original Mix)_sample.mp3
Audio file info Duration: 00:04:05.55, start: 0.000000, bitrate: 331 kb/s
Stream #0.0: Audio: mp3, 44100 Hz, 2 channels, s16, 320 kb/s

Contents of download:

17 megabyte in 3 files
Korn - Narcissistic Cannibal 2011 (single mp3 320 kbps)
  • Korn - Narcissistic Cannibal 2011 (single mp3 320 kbps)/01 - Narcissistic Cannibal.mp3 (7.7 MB)
  • Korn - Narcissistic Cannibal 2011 (single mp3 320 kbps)/02 - Narcissistic Cannibal (Original Mix).mp3 (10 MB)
  • Korn - Narcissistic Cannibal 2011 (single mp3 320 kbps)/bb12k88.jpg (69.1 KB)

Comments:


Add report or comment (250 words maximum)

I'd like:  
Type text from captcha: