Our friends

American Horror Story S01E06 HDTV XviD-ASAP torrent

Torrent info

Date 2011-11-10 11:46:10
Category Series/TV Shows
Hash a661b89ad41fc1d61b985ac0a9a337cb7b2ef5ff
Seeds / Leechs 11 / 0 refresh
Full size 350 MB
Tracker http://tracker.thepiratebay.org/announce
Tags american horror story s01e06 hdtv xvid asap
Download – American Horror Story S01E06 HDTV XviD-ASAP Download direct – no client needed

Related torrents

American Horror Story S01E06 HDTV XviD-ASAP
American Horror Story S01E07 HDTV XviD-ASAP
American Horror Story S01E07 HDTV XviD-ASAP
American Horror Story S01E09 HDTV XviD-P0W4

American Horror Story overview

Description

A psychological thriller in the center of the plot of which is the therapist and his wife, which are going through not the best period in their married life. Together with the child they moved to a new house, which, as it seems, knows all their fears and play them. Vivien (Britton) and Ben (McDermott) Harmony - the typical American couple. They have a daughter, growing up sociopath (Farmiga), their relationship is in crisis, and they passionately want a new baby, but Vivien happens miscarriage. Ben begins to cheat his wife with the student, and one day Mrs. Harmony finds it. They understand that this can not go and decide to move to another place to build relationships. The choice fell on a luxury home in Los Angeles, which is sold at remarkably low prices. Harmony enter the house and gradually begin to understand why it was sold so cheap. The fact is that on this seemingly innocuous place have happened far from harmless things. The creators of toxic Nip / Tuck, and eerily of pop Glee Ryan Murphy and Brad Felchak again raised the ratings of Fox to the skies. They swung to the project of the highest standard - a collection of cinema quotes, stamps, and cultural references (first and foremost, of course, to "Rosemary's Baby") - and never missed. Soaked in paranoia, fear, sex, gallons of blood and other things pleasing to the eye AHS never rolls in the trash.

Torrent's content info

American.Horror.Story.S01E06.HDTV.XviD-ASAP.avi

American Horror Story S01E06 HDTV XviD-ASAP screenshot
  • Screenshot 1
  • Screenshot 2
  • Screenshot 3
  • Screenshot 4
  • Screenshot 5
  • Screenshot 6
  • Screenshot 7
  • Screenshot 8
  • Screenshot 9

Duration: 00:43:28.63, start: 0.000000, bitrate: 1125 kb/s
Stream #0.0: Video: mpeg4, yuv420p, 624x352 [PAR 1:1 DAR 39:22], 23.98 tbr, 23.98 tbn, 23.98 tbc
Stream #0.1: Audio: mp3, 48000 Hz, 2 channels, s16, 32 kb/s

Check the movie's sound/language:

Contents of download:

350 megabyte in 1 files
American Horror Story S01E06 HDTV XviD-ASAP
  • American.Horror.Story.S01E06.HDTV.XviD-ASAP.avi (350 MB)

Comments:


Add report or comment (250 words maximum)

I'd like:  
Type text from captcha: