Our friends

MythBusters S09E19 Location Location Location HDTV XviD-FQM[ettv torrent

Torrent info

Date 2011-11-11 07:47:03
Category Series/TV Shows
Hash 0c53e98abb999b2cd08e4b80fee7843c72a8dab7
Seeds / Leechs -1 / -1 refresh
Full size 350 MB
Tracker http://tracker.thepiratebay.org/announce
Tags mythbusters s09e19 location location location hdtv xvid ettv

Related torrents

Mythbusters.S06E10.NASA.Moon.Landing.HDTV.XviD-GNARLY
Mythbusters.S07E08.Thermite.vs.Ice.HDTV.XVID-DVSKY
MythBusters S07E20 Antacid Jail Break HDTV XviD-FQM [eztv]
MythBusters S07E21 Unarmed and Unharmed HDTV XviD-FQM [eztv]

Torrent's content info

mythbusters.s09e19.hdtv.xvid-fqm.avi

MythBusters S09E19 Location Location Location HDTV XviD-FQM[ettv screenshot
  • Screenshot 1
  • Screenshot 2
  • Screenshot 3
  • Screenshot 4
  • Screenshot 5
  • Screenshot 6
  • Screenshot 7
  • Screenshot 8
  • Screenshot 9

Duration: 00:42:10.53, start: 0.000000, bitrate: 1160 kb/s
Stream #0.0: Video: mpeg4, yuv420p, 624x352 [PAR 1:1 DAR 39:22], 29.97 tbr, 29.97 tbn, 29.97 tbc
Stream #0.1: Audio: mp3, 48000 Hz, 2 channels, s16, 128 kb/s

Check the movie's sound/language:

Text sample Text sample from Torrent Downloaded From ExtraTorrent.com.txt

Torrent Downloaded From ExtraTorrent.com





- The biggest torrent community



- No fake torrents, All torrents checked by our Moderators



- The latest torrent releases



- The most helpful members and site admins



- Be updated with the latest news in the p2p world with ExtraTorrent



- The best forum community in the p2p world




Contents of download:

350 megabyte in 2 files
MythBusters S09E19 Location Location Location HDTV XviD-FQM[ettv
  • MythBusters S09E19 Location Location Location HDTV XviD-FQM[ettv]/mythbusters.s09e19.hdtv.xvid-fqm.avi (350 MB)
  • MythBusters S09E19 Location Location Location HDTV XviD-FQM[ettv]/Torrent Downloaded From ExtraTorrent.com.txt (0.3 KB)

Comments:


Add report or comment (250 words maximum)

I'd like:  
Type text from captcha: