Our friends

Greys Anatomy S08E09 HDTV XviD-LOL[ettv] torrent

Torrent info

Date 2011-11-11 10:48:06
Category Series/TV Shows
Hash 40ff3c6e6df41ef3af6f3181cfea70b739f30b95
Seeds / Leechs -1 / -1 refresh
Full size 349 MB
Tracker http://tracker.thepiratebay.org/announce
Tags greys anatomy s08e09 hdtv xvid ettv
Download – Greys Anatomy S08E09 HDTV XviD-LOL[ettv] Download direct – no client needed

Related torrents

Greys Anatomy S08E13 HDTV XviD-LOL[ettv]
Greys Anatomy S08E15 HDTV XviD-LOL[ettv]
Greys Anatomy S08E16 HDTV XviD-2HD[ettv]
Greys Anatomy S08E21 HDTV XviD-2HD[ettv]

Grey's Anatomy overview

Description

In the center of events - a young woman surgeon Meredith Grey, daughter of a physician Ellis Grey. She works in an urban hospital in Seattle, and colleagues, such as novice doctors like her. Surgeons operate on and fall in love, give birth to the medical history and business stories, keep their medical secrets, struggling with complications in patients and in their own personal lives. And often the relationship with the opposite sex excites them as much as the question of the acquisition of professional experience. The name itself is not even partially reflects the essence of the show. It's not just the anatomy of passion, but the anatomy of feelings, relationships and love in all its manifestations, shown so clearly, and at the same time available, that simply can not remain indifferent. The complex relationship of heroes with their patients and each other, forced to look forward to and watch each new episode. Probably none of the series can not see so many different stories of life and death, as in this. They sometimes tragic, sometimes with happy ending, but, somehow, each of them helps to understand the value of human life. Young doctors learn by doing, not only to fight to save lives, find a way out of difficult situations, but sometimes just to say goodbye.

Torrent's content info

greys.anatomy.809.hdtv-lol.avi

Greys Anatomy S08E09 HDTV XviD-LOL[ettv] screenshot
  • Screenshot 1
  • Screenshot 2
  • Screenshot 3
  • Screenshot 4
  • Screenshot 5
  • Screenshot 6
  • Screenshot 7
  • Screenshot 8

Duration: 00:42:25.63, start: 0.000000, bitrate: 1151 kb/s
Stream #0.0: Video: mpeg4, yuv420p, 624x352 [PAR 1:1 DAR 39:22], 23.98 tbr, 23.98 tbn, 23.98 tbc
Stream #0.1: Audio: mp3, 48000 Hz, 2 channels, s16, 128 kb/s

Check the movie's sound/language:

Text sample Text sample from Torrent Downloaded From ExtraTorrent.com.txt

Torrent Downloaded From ExtraTorrent.com





- The biggest torrent community



- No fake torrents, All torrents checked by our Moderators



- The latest torrent releases



- The most helpful members and site admins



- Be updated with the latest news in the p2p world with ExtraTorrent



- The best forum community in the p2p world




Contents of download:

349 megabyte in 2 files
Greys Anatomy S08E09 HDTV XviD-LOL[ettv]
  • Greys Anatomy S08E09 HDTV XviD-LOL[ettv]/greys.anatomy.809.hdtv-lol.avi (349 MB)
  • Greys Anatomy S08E09 HDTV XviD-LOL[ettv]/Torrent Downloaded From ExtraTorrent.com.txt (0.3 KB)

Comments:


Add report or comment (250 words maximum)

I'd like:  
Type text from captcha: