Our friends

Power Rangers Samurai 21 (HD) (deka) mp4 torrent

Torrent info

Date 2011-11-12 02:48:24
Category Series/TV Shows
Hash 9697c15559bc51c5dba62e7b8059b40b1f5fcfec
Seeds / Leechs -1 / -1 refresh
Full size 558 MB
Tracker http://tracker.thepiratebay.org/announce
Tags power rangers samurai deka
Download – Power Rangers Samurai 21 (HD) (deka) mp4 Download direct – no client needed

Related torrents

Power Rangers Samurai 05 (HD) (deka) mp4
Power Rangers Samurai 10 (HD) (deka) mp4
Power Rangers Samurai 11 (HD) (deka) mp4
Power Rangers Samurai- Vol 1 The Team Unites (2012) DVDRip XviD

Torrent's content info

Power Rangers Samurai 21 (HD) (deka).mp4

Power Rangers Samurai 21 (HD) (deka) mp4 screenshot
  • Screenshot 1
  • Screenshot 2
  • Screenshot 3
  • Screenshot 4
  • Screenshot 5
  • Screenshot 6
  • Screenshot 7
  • Screenshot 8
  • Screenshot 9

Duration: 00:23:36.36, start: 0.000000, bitrate: 3302 kb/s
Stream #0.0(und): Video: h264, yuv420p, 1280x720 [PAR 1:1 DAR 16:9], 3043 kb/s, 23.98 fps, 23.98 tbr, 24k tbn, 47.95 tbc
Stream #0.1(und): Audio: aac, 48000 Hz, stereo, s16, 255 kb/s

Check the movie's sound/language:

Contents of download:

558 megabyte in 1 files
Power Rangers Samurai 21 (HD) (deka) mp4
  • Power Rangers Samurai 21 (HD) (deka).mp4 (558 MB)

Comments:


Add report or comment (250 words maximum)

I'd like:  
Type text from captcha: