Our friends

HorribleSubs Kimi to Boku - 01 720p.mkv torrent

Torrent info

Date 2011-11-18 01:53:05
Category Anime
Hash 6ca1a2c4edc9a8b618e1c7e169da33f1cf8be1f2
Seeds / Leechs 4 / 1 refresh
Full size 282 MB
Tracker http://open.nyaatorrents.info:6544/scrape
Tags horriblesubs kimi boku 720p
Download – HorribleSubs Kimi to Boku - 01 720p.mkv Download direct – no client needed

Related torrents

HorribleSubs Kimi to Boku - 01 720p.mkv
[HorribleSubs] Kimi to Boku 2 - 09 [720p] mkv
[HorribleSubs] Kimi to Boku 2 - 09 [480p] mkv
[HorribleSubs] Kimi to Boku 2 - 10 [720p] mkv

Torrent's content info

[HorribleSubs] Kimi to Boku - 01 [720p].mkv

HorribleSubs Kimi to Boku - 01 720p.mkv screenshot
  • Screenshot 1
  • Screenshot 2
  • Screenshot 3
  • Screenshot 4
  • Screenshot 5
  • Screenshot 6
  • Screenshot 7
  • Screenshot 8
  • Screenshot 9

Duration: 00:24:20.21, start: 0.000000, bitrate: N/A
Stream #0.0: Video: h264, yuv420p, 1280x720 [PAR 1:1 DAR 16:9], 23.81 fps, 23.98 tbr, 1k tbn, 47.95 tbc
Stream #0.1: Audio: aac, 44100 Hz, stereo, s16
Stream #0.2: Subtitle: 0x0000
Stream #0.3: Attachment: 0x0000

Check the movie's sound/language:

Contents of download:

282 megabyte in 1 files
HorribleSubs Kimi to Boku - 01 720p.mkv
  • [HorribleSubs] Kimi to Boku - 01 [720p].mkv (282 MB)

Comments:


Add report or comment (250 words maximum)

I'd like:  
Type text from captcha: