Our friends

Ranma 1/2 S01e57-63 [XviD - Ita Ac3][Tntvillage] torrent

Torrent info

Date 2011-11-18 01:53:41
Category Anime
Hash 70e712908ca279cebf0eac0912f6630cecee94f1
Seeds / Leechs -1 / -1 refresh
Full size 1885 MB
Tracker http://tracker.tntvillage.scambioetico.org:2710/scrape
Tags ranma s01e57 xvid tntvillage

Related torrents

Bad Boys iTALiAN DVDRip XviD [TNTvillage scambioetico org]
Alain Resnais - Melo - Xvid(TNTVILLAGE)
Aki Kaurismaki - Leningrad Cowboys Go America Xvid(tntvillage)
Vittorio De Seta - Banditi A Orgosolo Xvid(tntvillage)

Torrent's content info

59 - La Separazione Dello Spirito.avi

Ranma 1/2 S01e57-63 [XviD - Ita Ac3][Tntvillage]  screenshot
  • Screenshot 1
  • Screenshot 2
  • Screenshot 3
  • Screenshot 4
  • Screenshot 5
  • Screenshot 6
  • Screenshot 7
  • Screenshot 8
  • Screenshot 9

Duration: 00:22:30.08, start: 0.000000, bitrate: 1674 kb/s
Stream #0.0: Video: mpeg4, yuv420p, 592x448 [PAR 1:1 DAR 37:28], 25 tbr, 25 tbn, 25 tbc
Stream #0.1: Audio: ac3, 48000 Hz, stereo, s16, 192 kb/s

Check the movie's sound/language:

Contents of download:

1885 megabyte in 7 files
Ranma 1/2 S01e57-63 [XviD - Ita Ac3][Tntvillage]
  • Ranma ep. 57-63 Ita/59 - La Separazione Dello Spirito.avi (269 MB)
  • Ranma ep. 57-63 Ita/63 - Viaggi Nel Tempo.avi (269 MB)
  • Ranma ep. 57-63 Ita/57 - Gli Ultimi Giorni Di Happosai.avi (269 MB)
  • Ranma ep. 57-63 Ita/62 - La Corsa Di Lotta Ad Ostacoli.avi (269 MB)
  • Ranma ep. 57-63 Ita/61 - La Saponetta Incantata.avi (269 MB)
  • Ranma ep. 57-63 Ita/60 - Il Combattente Imitatore.avi (269 MB)
  • Ranma ep. 57-63 Ita/58 - Lin Lin E Lan Lan Le Combina Guai.avi (269 MB)

Comments:


Add report or comment (250 words maximum)

I'd like:  
Type text from captcha: