Our friends

UFC 139 Countdown HDTV XviD-KYR torrent

Torrent info

Date 2011-11-19 03:48:27
Category Series/TV Shows
Hash 8bdf56b6d672aa434be79ca0c85974303df5e930
Seeds / Leechs -1 / -1 refresh
Full size 386 MB
Tracker http://tracker.thepiratebay.org/announce
Tags countdown hdtv xvid
Download – UFC 139 Countdown HDTV XviD-KYR Download direct – no client needed

Related torrents

UFC 103 Countdown HDTV XviD-KYR [dupedb.com]
UFC 126 Countdown HDTV XviD-aAF
UFC 128 Countdown HDTV XviD-KYR
www.Torrenting.com - TeenNick.Top.10.New.Years.Eve.2013.Countdown.HDTV.XviD-AFG

Torrent's content info

ufc.139.countdown.hdtv.xvid-kyr.avi

UFC 139 Countdown HDTV XviD-KYR screenshot
  • Screenshot 1
  • Screenshot 2
  • Screenshot 3
  • Screenshot 4
  • Screenshot 5
  • Screenshot 6
  • Screenshot 7
  • Screenshot 8
  • Screenshot 9

Duration: 00:40:01.63, start: 0.000000, bitrate: 1310 kb/s
Stream #0.0: Video: mpeg4, yuv420p, 624x352 [PAR 1:1 DAR 39:22], 29.97 tbr, 29.97 tbn, 29.98 tbc
Stream #0.1: Audio: mp3, 48000 Hz, 2 channels, s16, 128 kb/s

Check the movie's sound/language:

Text sample Text sample from www.Torrentday.com.txt

www.TorrentDay.com - is the Place you should be!!!!!!!!!!!!!!!!!

we are the most on-time tracker around the globe, You can download releases whenever they release out by group of uploaders.

no Wait Time, no Virus, Very Fast Download Speed.

Visit us at http://www.torrentday.com


Support Torrentday.com to grow faster :)


Thank you =)

http://www.Torrentday.com


www.TorrentDay.com
www.TorrentDay.com
www.TorrentDay.com
www.TorrentDay.com




Text sample Text sample from First Read This Guide.txt

www.TorrentDay.com - is the Place you should be!!!!!!!!!!!!!!!!!

we are the most on-time tracker around the globe, You can download releases whenever they release out by group of uploaders.

no Wait Time, no Virus, Very Fast Download Speed.

Visit us at http://www.torrentday.com


Support Torrentday.com to grow faster :)


Thank you =)

http://www.Torrentday.com


www.TorrentDay.com
www.TorrentDay.com
www.TorrentDay.com
www.TorrentDay.com




Contents of download:

386 megabyte in 5 files
UFC 139 Countdown HDTV XviD-KYR
  • [ www.TorrentDay.com ] - UFC.139.Countdown.HDTV.XviD-KYR/First Read This Guide.txt (0.5 KB)
  • [ www.TorrentDay.com ] - UFC.139.Countdown.HDTV.XviD-KYR/Sample/ufc.139.countdown.hdtv.xvid.sample-kyr.avi (11 MB)
  • [ www.TorrentDay.com ] - UFC.139.Countdown.HDTV.XviD-KYR/ufc.139.countdown.hdtv.xvid-kyr.avi (375 MB)
  • [ www.TorrentDay.com ] - UFC.139.Countdown.HDTV.XviD-KYR/ufc.139.countdown.hdtv.xvid-kyr.nfo (10.4 KB)
  • [ www.TorrentDay.com ] - UFC.139.Countdown.HDTV.XviD-KYR/www.Torrentday.com.txt (0.5 KB)

Comments:


Add report or comment (250 words maximum)

I'd like:  
Type text from captcha: