Our friends

11-21-2011 Days of our Lives avi torrent

Torrent info

Date 2011-11-23 05:48:20
Category Series/TV Shows
Hash 9c8a12cb8210bb4a7aeb7c66e9fe96dffbef6cf3
Seeds / Leechs -1 / -1 refresh
Full size 157 MB
Tracker http://tracker.thepiratebay.org/announce
Tags 2011 days lives
Download – 11-21-2011 Days of our Lives avi Download direct – no client needed

Related torrents

01-28-2011 Days of our Lives mp4
01-31-2011 Days of our Lives mp4
03-11-2011 Days of our Lives mp4
07-18-2011 Days of our Lives mp4

Torrent's content info

11-21-2011 Days of our Lives.avi

11-21-2011 Days of our Lives avi screenshot
  • Screenshot 1
  • Screenshot 2
  • Screenshot 3
  • Screenshot 4
  • Screenshot 5
  • Screenshot 6
  • Screenshot 7
  • Screenshot 8
  • Screenshot 9

Duration: 00:37:09.96, start: 0.000000, bitrate: 592 kb/s
Stream #0.0: Video: mpeg4, yuv420p, 720x400 [PAR 1:1 DAR 9:5], 30 tbr, 30 tbn, 30 tbc
Stream #0.1: Audio: mp3, 44100 Hz, 2 channels, s16, 32 kb/s

Check the movie's sound/language:

Contents of download:

157 megabyte in 1 files
11-21-2011 Days of our Lives avi
  • 11-21-2011 Days of our Lives.avi (157 MB)

Comments:


Add report or comment (250 words maximum)

I'd like:  
Type text from captcha: