Our friends

90210 S04E10 480p HDTV x264-mSD torrent

Torrent info

Date 2011-11-23 11:46:32
Category Series/TV Shows
Hash d8b12471693f0eeb8decfa28cf5d6a6ae085d199
Seeds / Leechs -1 / -1 refresh
Full size 173 MB
Tracker http://tracker.thepiratebay.org/announce
Tags 90210 s04e10 480p hdtv x264
Download – 90210 S04E10 480p HDTV x264-mSD Download direct – no client needed

Related torrents

90210 S04E17 480p HDTV x264-mSD
90210 S05E06 480p HDTV x264-mSD
90210 S05E09 480p HDTV x264-mSD
NCIS Los Angeles S04E10 480p HDTV x264-mSD

Torrent's content info

90210.S04E10.480p.HDTV.x264-mSD.mkv

90210 S04E10 480p HDTV x264-mSD screenshot
  • Screenshot 1
  • Screenshot 2
  • Screenshot 3
  • Screenshot 4
  • Screenshot 5
  • Screenshot 6
  • Screenshot 7
  • Screenshot 8
  • Screenshot 9

Duration: 00:41:25.31, start: 0.000000, bitrate: N/A
Stream #0.0(eng): Video: h264, yuv420p, 852x480, PAR 1:1 DAR 71:40, 23.98 fps, 24 tbr, 1k tbn, 47.95 tbc
--
title : (m)iCRO(S)iZED(D)OWNLOADS
Stream #0.1: Audio: aac, 48000 Hz, stereo, s16

Check the movie's sound/language:

Text sample Text sample from Torrent have been downloaded from Scenetime.com.txt

torrent has been downloaded from : http://www.scenetime.com

Join now and enjoy the fast speed downloads at www.scenetime.com

For Highres - TV shows and movies visit www.scenetime.com.




Text sample Text sample from 90210.S04E10.480p.HDTV.x264-mSD.nfo

[color=blue][b][img]http://lookpic.com/mz/82716-g5.jpg[/img]

90210.S04E10.480p.HDTV.x264-mSD [MKV 173MB]

[/b][/color] A Kansas family relocates to Beverly Hills, where their two children adapt to the infamous social drama of West Beverly Hills High.
Based on the 1990s FOX hit, Beverly Hills, 90210.
http://thetvdb.com/?tab=seasonall&id=82716

[pre]...............................................
. 90210.S04E10.480p.HDTV.x264-mSD.mkv
.......................................
. Duration :: 41 Minutes
. Release Size :: 173MB (80% Compress)
. x264 r2106 :: 446 Kbps
. AAC 2ch CBR :: 128 Kbps
. Resolution (AR) :: 852x480 (1.775)
....................

Source : 90210.S04E10.720p.HDTV.x264-COMPULSiON : 854MB

raw info: 852x480p 0:0 @ 10000000/417083 fps (cfr)
x264 info: profile High, level 4.1
x264 info: frame I:690 Avg QP:22.13 size: 21736
x264 info: frame P:20126 Avg QP:25.47 size: 4380
x264 info: frame B:38772 Avg QP:29.04 size: 974
x264 info: consecutive B-frames:...

Read full text


Text sample Text sample from Read this before playing this Video.txt

torrent has been downloaded from : http://www.scenetime.com

Join now and enjoy the fast speed downloads at www.scenetime.com

For Highres - TV shows and movies visit www.scenetime.com.




Contents of download:

173 megabyte in 4 files
90210 S04E10 480p HDTV x264-mSD
  • {www.scenetime.com}90210.S04E10.480p.HDTV.x264-mSD/90210.S04E10.480p.HDTV.x264-mSD.mkv (173 MB)
  • {www.scenetime.com}90210.S04E10.480p.HDTV.x264-mSD/90210.S04E10.480p.HDTV.x264-mSD.nfo (1.3 KB)
  • {www.scenetime.com}90210.S04E10.480p.HDTV.x264-mSD/Read this before playing this Video.txt (0.2 KB)
  • {www.scenetime.com}90210.S04E10.480p.HDTV.x264-mSD/Torrent have been downloaded from Scenetime.com.txt (0.2 KB)

Comments:


Add report or comment (250 words maximum)

I'd like:  
Type text from captcha: