Our friends

Underworld-Evolution 2006 BRRip 720p x264 DXVA-MXMG torrent

Torrent info

Date 2011-11-23 19:46:34
Category Movies
Hash 90a270633394837f695ea269b1e0d676fd9cec61
Seeds / Leechs 147 / 41 refresh
Full size 2247 MB
Tracker http://tracker.thepiratebay.org/announce
Tags underworld evolution 2006 brrip 720p x264 dxva mxmg

Related torrents

United 39 2006 BRRip 720p x264 DXVA-MXMG
We Are Marshall 2006 BRRip 720p x264 DXVA-MXMG
Underworld-Evolution 2006 BRRip 720p x264 DXVA-MXMG
Mission Impossible III 2006 BRRip 720p x264 DXVA-MXMG

Torrent's content info

Underworld-Evolution.mp4

Underworld-Evolution 2006 BRRip 720p x264 DXVA-MXMG screenshot
  • Screenshot 1
  • Screenshot 2
  • Screenshot 3
  • Screenshot 4
  • Screenshot 5
  • Screenshot 6
  • Screenshot 7
  • Screenshot 8
  • Screenshot 9

Duration: 01:46:21.82, start: 0.000000, bitrate: 2943 kb/s
Stream #0.0(und): Video: h264, yuv420p, 1280x528 [PAR 1:1 DAR 80:33], 2620 kb/s, 23.98 fps, 23.98 tbr, 40000k tbn, 47.95 tbc
Stream #0.1(und): Audio: aac, 48000 Hz, 5.1, s16, 319 kb/s

Text sample Text sample from Underworld-Evolution.nfo




Plot : Underworld: Evolution continues the saga of war between the vampires and the Lycans. The film goes back to the beginnings of the ancient feud between the two tribes as Selene, the beautiful vampire heroine, and Michael, the lycan hybrid, try to unlock the secrets of their bloodlines. This will be a modern tale of action, intrigue and forbidden love, which takes them into the battle to end all wars as the immortals must finally face their retribution.





Extra Info :
- Movie Info.......: http://www.imdb.com/title/tt0401855/
- Genre............: Action | Fantasy | Thriller
- Cast.............: Kate Beckinsale, Scott Speedman and Bill Nighy
- Subitles.........: English | French | Spanish | Portuguese
- Subtitle Format..: .srt
- Source...........: 720p.BluRay-aZA
- Format...........: MPEG-4 (.mp4)
- File Size........: 2.19 GiB
- Duration.........: 1h 46mn

Video Info :
- Format/Info......: Advanced Video Codec
- Format Profile...: High@L4.1
- Bitrate..........: 2 621 Kbps
-...

Read full text


Contents of download:

2247 megabyte in 15 files
Underworld-Evolution 2006 BRRip 720p x264 DXVA-MXMG
  • Underworld-Evolution 2006 BRRip 720p x264 DXVA-MXMG/Underworld-Evolution.mp4 (2240 MB)
  • Underworld-Evolution 2006 BRRip 720p x264 DXVA-MXMG/[Screenshots/Screenshot1.png (1 MB)
  • Underworld-Evolution 2006 BRRip 720p x264 DXVA-MXMG/[Screenshots/Screenshot5.png (1 MB)
  • Underworld-Evolution 2006 BRRip 720p x264 DXVA-MXMG/[Screenshots/Screenshot2.png (0.9 MB)
  • Underworld-Evolution 2006 BRRip 720p x264 DXVA-MXMG/[Screenshots/Screenshot7.png (0.8 MB)
  • Underworld-Evolution 2006 BRRip 720p x264 DXVA-MXMG/[Screenshots/Screenshot4.png (0.8 MB)
  • Underworld-Evolution 2006 BRRip 720p x264 DXVA-MXMG/[Screenshots/Screenshot9.png (0.8 MB)
  • Underworld-Evolution 2006 BRRip 720p x264 DXVA-MXMG/[Screenshots/Screenshot3.png (0.8 MB)
  • Underworld-Evolution 2006 BRRip 720p x264 DXVA-MXMG/[Screenshots/Screenshot8.png (0.6 MB)
  • Underworld-Evolution 2006 BRRip 720p x264 DXVA-MXMG/[Screenshots/Screenshot6.png (0.5 MB)
  • Underworld-Evolution 2006 BRRip 720p x264 DXVA-MXMG/French.srt (38 KB)
  • Underworld-Evolution 2006 BRRip 720p x264 DXVA-MXMG/Spanish.srt (38 KB)
  • Underworld-Evolution 2006 BRRip 720p x264 DXVA-MXMG/Portuguese.srt (36.9 KB)
  • Underworld-Evolution 2006 BRRip 720p x264 DXVA-MXMG/English.srt (30.7 KB)
  • Underworld-Evolution 2006 BRRip 720p x264 DXVA-MXMG/Underworld-Evolution.nfo (2.9 KB)

Comments:


Add report or comment (250 words maximum)

I'd like:  
Type text from captcha: