Our friends

Street Fighter II Victory [pack 5/5][DVDmux XviD AC3 Ita-Jap][Nautilus-BT] torrent

Torrent info

Date 2011-11-25 17:56:08
Category Anime
Hash 2a13df2520f93ef1f40bdf1168070a4e1a9688ac
Seeds / Leechs -1 / -1 refresh
Full size 1261 MB
Tracker http://tracker.pow7.com/scrape
Tags street fighter victory pack dvdmux xvid nautilus

Related torrents

[VSE] Street Fighter IV Animated [R2J][XviD][23B66392]
Street Fighter (La Leyenda) 2009 TS Alta Calidad Xvid Spanish LanzamientosDivx es
Street-Fighter-IV-2009-Dvdrip-AC3-Xvid - [ESPATORRENTS com]
Street Fighter (2009) [DvdRip] [Unrated] [Xvid] {1337x}-Noir

Torrent's content info

[D^2C] Street Fighter II Victory - 29 - Combattimento Finale.avi

Street Fighter II Victory [pack 5/5][DVDmux XviD AC3 Ita-Jap][Nautilus-BT] screenshot
  • Screenshot 1
  • Screenshot 2
  • Screenshot 3
  • Screenshot 4
  • Screenshot 5
  • Screenshot 6
  • Screenshot 7

Duration: 00:23:45.00, start: 0.000000, bitrate: 1583 kb/s
Stream #0.0: Video: mpeg4, yuv420p, 640x464 [PAR 1:1 DAR 40:29], 23.98 tbr, 23.98 tbn, 23.98 tbc
--
strn : [D^2C] Street Fighter II Victory - 29 - Combattimento Finale
Stream #0.1: Audio: ac3, 48000 Hz, stereo, s16, 192 kb/s
--
strn : Italiano
Stream #0.2: Audio: ac3, 48000 Hz, stereo, s16, 192 kb/s

Check the movie's sound/language:

Contents of download:

1261 megabyte in 5 files
Street Fighter II Victory [pack 5/5][DVDmux XviD AC3 Ita-Jap][Nautilus-BT]
  • Street Fighter Victory II s1e25-29/[D^2C] Street Fighter II Victory - 29 - Combattimento Finale.avi (269 MB)
  • Street Fighter Victory II s1e25-29/[D^2C] Street Fighter II Victory - 28 - La Scelta Di Bison.avi (248 MB)
  • Street Fighter Victory II s1e25-29/[D^2C] Street Fighter II Victory - 25 - Le Tre Battaglia Del Destino.avi (248 MB)
  • Street Fighter Victory II s1e25-29/[D^2C] Street Fighter II Victory - 26 - Il Dramma Di Due Amici.avi (248 MB)
  • Street Fighter Victory II s1e25-29/[D^2C] Street Fighter II Victory - 27 - Il Vero Potere Dell'Hadou.avi (248 MB)

Comments:


Add report or comment (250 words maximum)

I'd like:  
Type text from captcha: