Our friends

[HorribleSubs] Hunter X Hunter - 03 [720p].mkv torrent

Torrent info

Date 2011-11-25 17:56:23
Category Anime
Hash 546d726391b9e1ec18c2364daafa7435bf90ee7c
Seeds / Leechs 21 / 1 refresh
Full size 275 MB
Tracker http://open.nyaatorrents.info:6544/scrape
Tags horriblesubs hunter hunter 720p

Related torrents

[HorribleSubs] Hunter X Hunter - 02 [720p].mkv
[HorribleSubs] Hunter X Hunter - 06 [720p].mkv
[HorribleSubs] Hunter X Hunter - 05 [720p].mkv
[HorribleSubs] Hunter X Hunter - 04 [720p].mkv

Torrent's content info

[HorribleSubs] Hunter X Hunter - 03 [720p].mkv

[HorribleSubs] Hunter X Hunter - 03 [720p].mkv screenshot
  • Screenshot 1
  • Screenshot 2
  • Screenshot 3
  • Screenshot 4
  • Screenshot 5
  • Screenshot 6
  • Screenshot 7
  • Screenshot 8
  • Screenshot 9

Duration: 00:23:37.32, start: 0.000000, bitrate: N/A
Stream #0.0: Video: h264, yuv420p, 1280x720 [PAR 1:1 DAR 16:9], 23.81 fps, 23.98 tbr, 1k tbn, 47.95 tbc
Stream #0.1: Audio: aac, 44100 Hz, stereo, s16
Stream #0.2: Subtitle: 0x0000
Stream #0.3: Attachment: 0x0000

Check the movie's sound/language:

Contents of download:

275 megabyte in 1 files
[HorribleSubs] Hunter X Hunter - 03 [720p].mkv
  • [HorribleSubs] Hunter X Hunter - 03 [720p].mkv (275 MB)

Comments:


Add report or comment (250 words maximum)

I'd like:  
Type text from captcha: