Our friends

Tom y Jerry - 109 Las Fotos de Tom [DVDRip][Spanish] torrent

Torrent info

Date 2011-11-27 16:46:12
Category Music
Hash b3abf89a436e6e2f5499c4aa462fdca363e3e12e
Seeds / Leechs -1 / -1 refresh
Full size 106 MB
Tracker http://tracker.thepiratebay.org/announce
Tags jerry fotos dvdrip spanish

Related torrents

Tom y Jerry y el tesoro del galeon pirata(DVDRIP)(Spanish)(www lokotorrents com)(animacion)
Tom y Jerry El anillo magico(DVDrip)(Spanish)(www lokotorrents com)(mpg)
Tom y Jerry El cuento del cascanueces(DVDrip)(Spanish)(www lokotorrents com)
Tom y Jerry El Anillo Magico[dvdrip][spanish]

Torrent's content info

Tom_Y_Jerry_109_Las_fotos_de_Tom.www.lokotorrents.com.avi

Tom y Jerry - 109 Las Fotos de Tom [DVDRip][Spanish] screenshot
  • Screenshot 1
  • Screenshot 2
  • Screenshot 3
  • Screenshot 4
  • Screenshot 5
  • Screenshot 6
  • Screenshot 7
  • Screenshot 8
  • Screenshot 9

Duration: 00:06:03.28, start: 0.000000, bitrate: 2448 kb/s
Stream #0.0: Video: mpeg4, yuv420p, 720x576 [PAR 1:1 DAR 5:4], 25 tbr, 25 tbn, 25 tbc
Stream #0.1: Audio: mp3, 48000 Hz, 2 channels, s16, 128 kb/s

Check the movie's sound/language:

Contents of download:

106 megabyte in 1 files
Tom y Jerry - 109 Las Fotos de Tom [DVDRip][Spanish]
  • Tom y Jerry - 109 Las Fotos de Tom [DVDRip][Spanish][www.lokotorrents.com]/Tom_Y_Jerry_109_Las_fotos_de_Tom.www.lokotorrents.com.avi (106 MB)

Comments:


Add report or comment (250 words maximum)

I'd like:  
Type text from captcha: