Our friends

Dragonball Z - Movie 9 - Bojack Unbound PhoenixRG torrent

Torrent info

Date 2011-11-29 00:52:19
Category Anime
Hash 0f3fc6d8550b0872b6e8b2167b8319943a752525
Seeds / Leechs 2 / 1 refresh
Full size 714 MB
Tracker http://fr33dom.h33t.com:3310/scrape
Tags dragonball movie bojack unbound phoenixrg

Related torrents

DuckTales The Movie - Treasure of the Lost Lamp 1990 HDTV 720p - PhoenixRG
Dragonball Z - Movie 6 - The Return Of Cooler PhoenixRG
Dragonball Z - Movie 5 - Coolers Revenge PhoenixRG
Dragonball Z - Movie 9 - Bojack Unbound PhoenixRG

Torrent's content info

Dragonball Z - Movie 9 - Bojack Unbound PhoenixRG.avi

Dragonball Z - Movie 9 - Bojack Unbound PhoenixRG screenshot
  • Screenshot 1
  • Screenshot 2
  • Screenshot 3
  • Screenshot 4
  • Screenshot 5
  • Screenshot 6
  • Screenshot 7
  • Screenshot 8
  • Screenshot 9

Duration: 00:50:25.32, start: 0.000000, bitrate: 1980 kb/s
Stream #0.0: Video: mpeg4, yuv420p, 640x480 [PAR 1:1 DAR 4:3], 23.98 tbr, 23.98 tbn, 23.98 tbc
Stream #0.1: Audio: mp3, 48000 Hz, 2 channels, s16, 224 kb/s

Check the movie's sound/language:

Contents of download:

714 megabyte in 1 files
Dragonball Z - Movie 9 - Bojack Unbound PhoenixRG
  • Dragonball Z - Movie 9 - Bojack Unbound PhoenixRG/Dragonball Z - Movie 9 - Bojack Unbound PhoenixRG.avi (714 MB)

Comments:


Add report or comment (250 words maximum)

I'd like:  
Type text from captcha: