Our friends

Ellen McIlwaine [Blues] - Everybody Needs It (1982)(+bonus track)@192kbps torrent

Torrent info

Date 2011-11-29 12:49:34
Category Music
Hash 10686da221b287b498bfbc39afdc5ee0e2124aa7
Seeds / Leechs -1 / -1 refresh
Full size 51 MB
Tracker http://pow7.com/scrape
Tags ellen mcilwaine blues everybody needs 1982 bonus track 192kbps

Related torrents

T.I._-_Whatever_You_Like + bonus track
ColdPlay X&Y [+Bonus track_320 kbit/s]
Weezer - Red Album (ALL TRACKS PLUS A BONUS TRACK)
The Blues Brothers [Everybody Needs] [MP3] [256Kbps] [Hannspree]

Torrent's content info

20 seconds audio samples

Hang On To A Dream_sample.mp3
Audio file info Duration: 00:03:47.80, start: 0.000000, bitrate: 191 kb/s
Stream #0.0: Audio: mp3, 44100 Hz, 2 channels, s16, 192 kb/s
Danger Zone_sample.mp3
Audio file info Duration: 00:04:25.39, start: 0.000000, bitrate: 192 kb/s
Stream #0.0: Audio: mp3, 44100 Hz, 2 channels, s16, 192 kb/s
Everybody Needs It_sample.mp3
Audio file info Duration: 00:03:17.81, start: 0.000000, bitrate: 192 kb/s
Stream #0.0: Audio: mp3, 44100 Hz, 2 channels, s16, 192 kb/s
Regretting Blues_sample.mp3
Audio file info Duration: 00:02:29.30, start: 0.000000, bitrate: 192 kb/s
Stream #0.0: Audio: mp3, 44100 Hz, 2 channels, s16, 192 kb/s

Contents of download:

51 megabyte in 12 files
Ellen McIlwaine [Blues] - Everybody Needs It (1982)(+bonus track)@192kbps
  • Ellen McIlwaine - Everybody Needs It (1982)/Danger Zone.mp3 (6.1 MB)
  • Ellen McIlwaine - Everybody Needs It (1982)/Cure My Blues.mp3 (5.8 MB)
  • Ellen McIlwaine - Everybody Needs It (1982)/Say A Single Word.mp3 (5.2 MB)
  • Ellen McIlwaine - Everybody Needs It (1982)/Hang On To A Dream.mp3 (5.2 MB)
  • Ellen McIlwaine - Everybody Needs It (1982)/Keep On.mp3 (5 MB)
  • Ellen McIlwaine - Everybody Needs It (1982)/Everybody Needs It.mp3 (4.5 MB)
  • Ellen McIlwaine - Everybody Needs It (1982)/Nothing Left To Be Desired.mp3 (4.5 MB)
  • Ellen McIlwaine - Everybody Needs It (1982)/I Want Whacha Got.mp3 (4.1 MB)
  • Ellen McIlwaine - Everybody Needs It (1982)/Temptation Took Control.mp3 (3.8 MB)
  • Ellen McIlwaine - Everybody Needs It (1982)/Come Sit Down And Tell Me.mp3 (3.7 MB)
  • Ellen McIlwaine - Everybody Needs It (1982)/Regretting Blues.mp3 (3.4 MB)
  • Ellen McIlwaine - Everybody Needs It (1982)/Note.doc (94 KB)

Comments:


Add report or comment (250 words maximum)

I'd like:  
Type text from captcha: