Our friends

Documentales de sexo - 01 Sexo del siglo XXI [dVDRIp][SPanish] torrent

Torrent info

Date 2011-12-01 15:46:08
Category Series/TV Shows
Hash ab52490a27b9f44f82637dacc729a75c832195dc
Seeds / Leechs 2 / 0 refresh
Full size 580 MB
Tracker http://tracker.thepiratebay.org/announce
Tags documentales sexo sexo siglo dvdrip spanish

Related torrents

Sexo.Con.Amor.[DVDRIP]
Sexo y mentiras[DVDrip][Spanish][www.lokotorrents.com]
Sexo en la Antiguedad La Edad de Piedra [DVDRip][Spanish]
Documentales de sexo - 01 Sexo del siglo XXI [dVDRIp][SPanish]

Torrent's content info

01 Sexo del siglo XXI.www.lokotorrents.com.avi

Documentales de sexo - 01 Sexo del siglo XXI [dVDRIp][SPanish] screenshot
  • Screenshot 1
  • Screenshot 2
  • Screenshot 3
  • Screenshot 4
  • Screenshot 5
  • Screenshot 6
  • Screenshot 7
  • Screenshot 8
  • Screenshot 9

Duration: 00:48:45.60, start: 0.000000, bitrate: 1663 kb/s
Stream #0.0: Video: mpeg4, yuv420p, 720x320 [PAR 1:1 DAR 9:4], 25 tbr, 25 tbn, 25 tbc
Stream #0.1: Audio: mp3, 48000 Hz, 2 channels, s16, 112 kb/s

Check the movie's sound/language:

Contents of download:

580 megabyte in 1 files
Documentales de sexo - 01 Sexo del siglo XXI [dVDRIp][SPanish]
  • Documentales de sexo - 01 Sexo del siglo XXI [dVDRIp][SPanish][www.lokotorrents.com]/01 Sexo del siglo XXI.www.lokotorrents.com.avi (580 MB)

Comments:


Add report or comment (250 words maximum)

I'd like:  
Type text from captcha: