Our friends

Honey,We Shrunk Ourselves[1997]DvDRip In[Hindi-Eng]By !!!dip torrent

Torrent info

Date 2011-12-02 20:47:18
Category Movies
Hash f9de59ae2d710b2d76735d12f0321cb14003c39d
Seeds / Leechs -1 / -1 refresh
Full size 776 MB
Tracker http://tracker.thepiratebay.org/announce
Tags honey shrunk ourselves 1997 dvdrip hindi

Related torrents

Event Horizon (1997) [DVDrip - AC3 - 5 1- Multiple Sup's](oan)
Home Alone 3[1997]DvDrip[Eng]-Toxic3
Nothing to Lose[1997] Dvdrip Xvid AC3[5 1]-RoCK&BlueLadyRG
Honey,We.Shrunk.Ourselves[1997]DvDrip[Eng]-Toxic3

Torrent's content info

Honey,We Shrunk Ourselves[1997]DvDRip In[Hindi-Eng]By !!!dip.mkv

Honey,We Shrunk Ourselves[1997]DvDRip In[Hindi-Eng]By !!!dip screenshot
  • Screenshot 1
  • Screenshot 2
  • Screenshot 3
  • Screenshot 4
  • Screenshot 5
  • Screenshot 6
  • Screenshot 7
  • Screenshot 8
  • Screenshot 9

Duration: 01:11:52.64, start: 0.000000, bitrate: 288 kb/s
Stream #0.0(eng): Video: mpeg4, yuv420p, 602x330 [PAR 19:26 DAR 5719:4290], PAR 165:226 DAR 301:226, 25 fps, 25 tbr, 1k tbn, 25 tbc
--
title : !!!dip
Stream #0.1(eng): Audio: mp3, 48000 Hz, 2 channels, s16, 64 kb/s
--
title : !!!dip
Stream #0.2(hin): Audio: mp2, 48000 Hz, 2 channels, s16, 224 kb/s
--
title : !!!dip
Stream #0.3(eng): Subtitle: 0x0000

Check the movie's sound/language:

Text sample Text sample from JOIN IN FACE BOOK COMMUNITY OR GROUP.txt

Read full text


Contents of download:

776 megabyte in 17 files
Honey,We Shrunk Ourselves[1997]DvDRip In[Hindi-Eng]By !!!dip
  • Honey,We Shrunk Ourselves[1997]DvDRip In[Hindi-Eng]By !!!dip/SAMPLE/1.jpg (73.4 KB)
  • Honey,We Shrunk Ourselves[1997]DvDRip In[Hindi-Eng]By !!!dip/_____padding_file_0_if you see this file, please update to BitComet 0.85 or above____ (0.2 MB)
  • Honey,We Shrunk Ourselves[1997]DvDRip In[Hindi-Eng]By !!!dip/SAMPLE/2.jpg (63.4 KB)
  • Honey,We Shrunk Ourselves[1997]DvDRip In[Hindi-Eng]By !!!dip/_____padding_file_1_if you see this file, please update to BitComet 0.85 or above____ (0.2 MB)
  • Honey,We Shrunk Ourselves[1997]DvDRip In[Hindi-Eng]By !!!dip/SAMPLE/3.jpg (62.5 KB)
  • Honey,We Shrunk Ourselves[1997]DvDRip In[Hindi-Eng]By !!!dip/_____padding_file_2_if you see this file, please update to BitComet 0.85 or above____ (0.2 MB)
  • Honey,We Shrunk Ourselves[1997]DvDRip In[Hindi-Eng]By !!!dip/SAMPLE/4.jpg (52.1 KB)
  • Honey,We Shrunk Ourselves[1997]DvDRip In[Hindi-Eng]By !!!dip/_____padding_file_3_if you see this file, please update to BitComet 0.85 or above____ (0.2 MB)
  • Honey,We Shrunk Ourselves[1997]DvDRip In[Hindi-Eng]By !!!dip/SAMPLE/5.jpg (46.1 KB)
  • Honey,We Shrunk Ourselves[1997]DvDRip In[Hindi-Eng]By !!!dip/_____padding_file_4_if you see this file, please update to BitComet 0.85 or above____ (0.2 MB)
  • Honey,We Shrunk Ourselves[1997]DvDRip In[Hindi-Eng]By !!!dip/SAMPLE/6.jpg (52.3 KB)
  • Honey,We Shrunk Ourselves[1997]DvDRip In[Hindi-Eng]By !!!dip/_____padding_file_5_if you see this file, please update to BitComet 0.85 or above____ (0.2 MB)
  • Honey,We Shrunk Ourselves[1997]DvDRip In[Hindi-Eng]By !!!dip/SAMPLE/Honey,We Shrunk Ourselves[1997]DvDRip In[Hindi-Eng]By !!!dip (SAMPLE).mkv (12 MB)
  • Honey,We Shrunk Ourselves[1997]DvDRip In[Hindi-Eng]By !!!dip/_____padding_file_6_if you see this file, please update to BitComet 0.85 or above____ (0.2 MB)
  • Honey,We Shrunk Ourselves[1997]DvDRip In[Hindi-Eng]By !!!dip/Honey,We Shrunk Ourselves[1997]DvDRip In[Hindi-Eng]By !!!dip.mkv (762 MB)
  • Honey,We Shrunk Ourselves[1997]DvDRip In[Hindi-Eng]By !!!dip/_____padding_file_7_if you see this file, please update to BitComet 0.85 or above____ (41.2 KB)
  • Honey,We Shrunk Ourselves[1997]DvDRip In[Hindi-Eng]By !!!dip/JOIN IN FACE BOOK COMMUNITY OR GROUP.txt (1.6 KB)

Comments:


Add report or comment (250 words maximum)

I'd like:  
Type text from captcha: