Our friends

Glee The Music - Christmas Album Volume 2 (2011) torrent

Torrent info

Date 2011-12-03 07:47:03
Category Music
Hash 0797ea8b7f06c053cda660db7fa3aff10906cbb1
Seeds / Leechs 301 / 25 refresh
Full size 97 MB
Tracker http://tracker.thepiratebay.org/announce
Tags glee music christmas album volume 2011

Related torrents

VA - Glee: The Music, The Christmas Album 2010(hufc)
Glee - The Music, The Christmas Album
Glee - The Music Presents The Warblers [2011-MP3-Cov][MJN]
Glee The Music - Christmas Album Volume 2 (2011)

Torrent's content info

20 seconds audio samples

03 - Santa Baby_sample.mp3
Audio file info Duration: 00:02:33.86, start: 0.000000, bitrate: 324 kb/s
Stream #0.0: Audio: mp3, 44100 Hz, 2 channels, s16, 320 kb/s
09 - Santa Claus Is Coming To Town_sample.mp3
Audio file info Duration: 00:02:50.34, start: 0.000000, bitrate: 324 kb/s
Stream #0.0: Audio: mp3, 44100 Hz, 2 channels, s16, 320 kb/s
10 - Christmas Wrapping_sample.mp3
Audio file info Duration: 00:04:03.95, start: 0.000000, bitrate: 322 kb/s
Stream #0.0: Audio: mp3, 44100 Hz, 2 channels, s16, 320 kb/s
05 - Little Drummer Boy_sample.mp3
Audio file info Duration: 00:02:57.50, start: 0.000000, bitrate: 323 kb/s
Stream #0.0: Audio: mp3, 44100 Hz, 2 channels, s16, 320 kb/s

Contents of download:

97 megabyte in 13 files
Glee The Music - Christmas Album Volume 2 (2011)
  • Glee The Music - Christmas Album Volume 2 (2011)/01 - All I Want For Christmas Is You.mp3 (9.4 MB)
  • Glee The Music - Christmas Album Volume 2 (2011)/06 - River.mp3 (9.4 MB)
  • Glee The Music - Christmas Album Volume 2 (2011)/10 - Christmas Wrapping.mp3 (9.4 MB)
  • Glee The Music - Christmas Album Volume 2 (2011)/07 - Do You Hear What I Hear.mp3 (9 MB)
  • Glee The Music - Christmas Album Volume 2 (2011)/11 - Blue Christmas.mp3 (8.9 MB)
  • Glee The Music - Christmas Album Volume 2 (2011)/02 - Extraordinary Merry Christmas.mp3 (8.5 MB)
  • Glee The Music - Christmas Album Volume 2 (2011)/04 - Christmas Eve With You.mp3 (8.1 MB)
  • Glee The Music - Christmas Album Volume 2 (2011)/12 - Do They Know It's Christmas.mp3 (7.9 MB)
  • Glee The Music - Christmas Album Volume 2 (2011)/05 - Little Drummer Boy.mp3 (6.9 MB)
  • Glee The Music - Christmas Album Volume 2 (2011)/09 - Santa Claus Is Coming To Town.mp3 (6.6 MB)
  • Glee The Music - Christmas Album Volume 2 (2011)/08 - Let It Snow.mp3 (6.5 MB)
  • Glee The Music - Christmas Album Volume 2 (2011)/03 - Santa Baby.mp3 (6 MB)
  • Glee The Music - Christmas Album Volume 2 (2011)/cover.jpg (81.9 KB)

Comments:


Add report or comment (250 words maximum)

I'd like:  
Type text from captcha: