Our friends

Apollo 18 2011 BRRip XviD-3LT0N torrent

Torrent info

Date 2011-12-04 04:47:33
Category Movies
Hash 52fcd7d6e204cfd13c2fde239bca1aa3931d8dc8
Seeds / Leechs -1 / -1 refresh
Full size 703 MB
Tracker http://tracker.thepiratebay.org/announce
Tags apollo 2011 brrip xvid 3lt0n
Download – Apollo 18 2011 BRRip XviD-3LT0N Download direct – no client needed

Related torrents

Battle Los Angeles 2011 BRRip XviD-3LT0N
Blitz 2011 BRRip XviD-3LT0N
Zookeeper 2011 BRRip XviD-3LT0N
Abduction 2011 BRRip XviD-3LT0N

Apollo 18 overview

Description

Back in 1975 U.S. spacecraft "Apollo-18" went to the moon with a special, undocumented mission, which took place or not. That flight was the subject of speculation and legends: the astronauts could easily get the job to done filming, proving the existence of extraterrestrial life. And there is a version that the shooting took place. It seems that the sci-fi thriller "Apollo 18", producer of which is Timur Bekmambetov, will finally reveal a long waiting secret. Perhaps viewers of the movie will see the same documentary tapes, documenting the alien mind. In production of the movie is engaged The Weinstein Company (USA).

Torrent's content info

Apollo.18.2011.BRRip.XviD-3LT0N.avi

Apollo 18 2011 BRRip XviD-3LT0N screenshot
  • Screenshot 1
  • Screenshot 2
  • Screenshot 3
  • Screenshot 4
  • Screenshot 5
  • Screenshot 6
  • Screenshot 7
  • Screenshot 8
  • Screenshot 9

Duration: 01:26:32.07, start: 0.000000, bitrate: 1135 kb/s
Stream #0.0: Video: mpeg4, yuv420p, 640x352 [PAR 39:40 DAR 39:22], 23.98 tbr, 23.98 tbn, 23.98 tbc
Stream #0.1: Audio: mp3, 48000 Hz, 2 channels, s16, 128 kb/s

Check the movie's sound/language:

Text sample Text sample from 3LT0N-NFO.nfo

Read full text


Text sample Text sample from www.Speed.Cd.txt

Torrent Has Been Downloaded from www.Speed.Cd




Text sample Text sample from Speed.cd read me .txt

Torrent Has Been Downloaded from www.Speed.Cd




Contents of download:

703 megabyte in 4 files
Apollo 18 2011 BRRip XviD-3LT0N
  • [ www.Speed.Cd ] - Apollo.18.2011.BRRip.XviD-3LT0N/3LT0N-NFO.nfo (8.4 KB)
  • [ www.Speed.Cd ] - Apollo.18.2011.BRRip.XviD-3LT0N/Apollo.18.2011.BRRip.XviD-3LT0N.avi (703 MB)
  • [ www.Speed.Cd ] - Apollo.18.2011.BRRip.XviD-3LT0N/Speed.cd read me .txt (0 KB)
  • [ www.Speed.Cd ] - Apollo.18.2011.BRRip.XviD-3LT0N/www.Speed.Cd.txt (0 KB)

Comments:


Add report or comment (250 words maximum)

I'd like:  
Type text from captcha: