Our friends

Another Happy Day 2011 DVDSCR XviD-FTW torrent

Torrent info

Date 2011-12-04 16:47:58
Category Movies
Hash e7cfbf1a51f0e7aefceed29b2a66d2e2d55a20d6
Seeds / Leechs -1 / -1 refresh
Full size 664 MB
Tracker http://tracker.thepiratebay.org/announce
Tags another happy 2011 dvdscr xvid
Download – Another Happy Day 2011 DVDSCR XviD-FTW Download direct – no client needed

Related torrents

The Kings Speech 2011 DVDSCR XviD AC3 - iLLUSiON (Kingdom-Release)
Frankie and Alice 2011 DVDSCR XviD Absurdity
Happy Feet 2 2011 DVDSCR XviD AC3-FTW
Happy Feet Two 2011 DVDSCR XVID AC3-PREMIUM

Another Happy Day overview

Description

In the story of the pictures scattered all over the world relatives of bride and groom are going to a wedding. And try to look each other better than they really are. But ultimately, the wedding turns into a dismantling of relations of the former spouses, lovers, aunts, gossips and reckless teenage children. The marriage day of the son of Lynn (Ellen Barkin), the protagonist of the movie, about which is the film "Another happy Day" gathers all the relatives of the bride and groom. Former spouses and their children, aunts, gossip and current lovers - all of them at first try to appear better than they really are. However, to "save face" to the heroes of the film "Another Happy Day" is not so easy and celebration in the end turns into a very unattractive place clashes between disparate relatives.

Torrent's content info

Another Happy Day 2011 DVDSCR XviD-FTW.avi

Another Happy Day 2011 DVDSCR XviD-FTW screenshot
  • Screenshot 1
  • Screenshot 2
  • Screenshot 3
  • Screenshot 4
  • Screenshot 5
  • Screenshot 6
  • Screenshot 7
  • Screenshot 8
  • Screenshot 9

Duration: 01:58:43.40, start: 0.000000, bitrate: 764 kb/s
Stream #0.0: Video: mpeg4, yuv420p, 720x272 [PAR 1:1 DAR 45:17], 23.98 tbr, 23.98 tbn, 23.98 tbc
Stream #0.1: Audio: mp3, 48000 Hz, 2 channels, s16, 128 kb/s

Check the movie's sound/language:

Text sample Text sample from Release.nfo

FFFFFFFFFFFFFFFFFFFFFF TTTTTTTTTTTTTTTTTTTTTTT WWWWWWWW WWWWWWWW
F::::::::::::::::::::F T:::::::::::::::::::::T W::::::W W::::::W
F::::::::::::::::::::F T:::::::::::::::::::::T W::::::W W::::::W
FF::::::FFFFFFFFF::::F T:::::TT:::::::TT:::::T W::::::W W::::::W
F:::::F FFFFFF TTTTTT T:::::T TTTTTT W:::::W WWWWW W:::::W
F:::::F T:::::T W:::::W W:::::W W:::::W
F::::::FFFFFFFFFF T:::::T W:::::W W:::::::W W:::::W
F:::::::::::::::F T:::::T W:::::W W:::::::::W W:::::W
F:::::::::::::::F T:::::T W:::::W W:::::W:::::W W:::::W
F::::::FFFFFFFFFF T:::::T W:::::W W:::::W W:::::W W:::::W
F:::::F T:::::T W:::::W:::::W W:::::W:::::W
F:::::F ...

Read full text


Text sample Text sample from Read this before playing this Video .txt

torrent has been downloaded from : http://www.scenetime.com

Join now and enjoy the fast speed downloads at www.scenetime.com






Text sample Text sample from torrent downloaded from www.scenetime.com.txt

torrent has been downloaded from : http://www.scenetime.com

Join now and enjoy the fast speed downloads at www.scenetime.com






Contents of download:

664 megabyte in 5 files
Another Happy Day 2011 DVDSCR XviD-FTW
  • { www.SceneTime.com } -Another Happy Day 2011 DVDSCR XviD-FTW/Another Happy Day 2011 DVDSCR XviD-FTW.avi (649 MB)
  • { www.SceneTime.com } -Another Happy Day 2011 DVDSCR XviD-FTW/Another Happy Day 2011 DVDSCR XviD-FTW.sample.avi (15 MB)
  • { www.SceneTime.com } -Another Happy Day 2011 DVDSCR XviD-FTW/Read this before playing this Video .txt (0.1 KB)
  • { www.SceneTime.com } -Another Happy Day 2011 DVDSCR XviD-FTW/Release.nfo (2.3 KB)
  • { www.SceneTime.com } -Another Happy Day 2011 DVDSCR XviD-FTW/torrent downloaded from www.scenetime.com.txt (0.1 KB)

Comments:


Add report or comment (250 words maximum)

I'd like:  
Type text from captcha: