Our friends

Cat Run 2011 BDRiP XViD-NOSCREENS torrent

Torrent info

Date 2011-12-05 06:47:53
Category Movies
Hash dc6897bfefa73a500ea63becbc85acd62c1f6f14
Seeds / Leechs -1 / -1 refresh
Full size 720 MB
Tracker http://tracker.thepiratebay.org/announce
Tags 2011 bdrip xvid noscreens
Download – Cat Run 2011 BDRiP XViD-NOSCREENS Download direct – no client needed

Related torrents

Cat Run 2011 BDRiP XViD-NOSCREENS
Princess and the Pony 2011 BDRiP XViD-NOSCREENS
Skew 2011 BDRip XviD-NOSCREENS [PublicHD]
Skew 2011 BDRip XviD-NOSCREENS

Cat Run overview

Description

Torrent's content info

noscreen-cat.run-xvid.avi

Cat Run 2011 BDRiP XViD-NOSCREENS screenshot
  • Screenshot 1
  • Screenshot 2
  • Screenshot 3
  • Screenshot 4
  • Screenshot 5
  • Screenshot 6
  • Screenshot 7
  • Screenshot 8
  • Screenshot 9

Duration: 01:46:07.06, start: 0.000000, bitrate: 923 kb/s
Stream #0.0: Video: mpeg4, yuv420p, 640x272 [PAR 1:1 DAR 40:17], 23.98 tbr, 23.98 tbn, 23.98 tbc
Stream #0.1: Audio: mp3, 48000 Hz, 2 channels, s16, 128 kb/s

Check the movie's sound/language:

Text sample Text sample from noscreen-cat.run-xvid.nfo

:::. :::. ...
`;;;;, `;;; .;;;;;;;.
[[[[[. '[[,[[ \[[,
$$$ "Y$c$$$$$, $$$
888 Y88"888,_ _,88P
MMM YM "YMMMMMP"

.::::::. .,-::::: :::::::.. .,:::::: .,:::::::::. :::.
;;;` ` ,;;;'````' ;;;;``;;;; ;;;;'''' ;;;;''''`;;;;, `;;;
'[==/[[[[,[[[ [[[,/[[[' [[cccc [[cccc [[[[[. '[[
''' $$$$ $$$$$$c $$"""" $$"""" $$$ "Y$c$$
88b dP`88bo,__,o, 888b "88bo,888oo,__ 888oo,__ 888 Y88
"YMmMY" "YUMMMMMP"MMMM "W" """"YUMMM""""YUMMMMMM YM
.::::::.
;;;` `
'[==/[[[[,
''' $
88b dP
"YMmMY"



PROUDLY PRESENTS :


Cat.Run.2011.BDRiP.XViD-NOSCREENS


RELEASE DATE.: 12/04/11
...

Read full text


Text sample Text sample from READ this before playing the Movie.txt

www.Torrenting.com - a special Tracker only for Movies.

we are the most on-time tracker around the globe, You can download releases whenever they release out by group uploaders.

no Wait Time, no Virus, Very Fast Download Speed.

Find us at http://www.torrenting.com

Support Torrenting.com to grow faster :)

Thank you =)

Join The Legends at: http://www.Torrenting.com

www.Torrenting.com
www.Torrenting.com
www.Torrenting.com
www.Torrenting.com




Text sample Text sample from www.Torrenting.com.txt

www.Torrenting.com - a special Tracker only for Movies.

we are the most on-time tracker around the globe, You can download releases whenever they release out by group uploaders.

no Wait Time, no Virus, Very Fast Download Speed.

Find us at http://www.torrenting.com

Support Torrenting.com to grow faster :)

Thank you =)

Join The Legends at: http://www.Torrenting.com

www.Torrenting.com
www.Torrenting.com
www.Torrenting.com
www.Torrenting.com




Contents of download:

720 megabyte in 9 files
Cat Run 2011 BDRiP XViD-NOSCREENS
  • [ www.Torrenting.com ] - Cat.Run.2011.BDRiP.XViD-NOSCREENS/noscreen-cat.run-xvid.avi (701 MB)
  • [ www.Torrenting.com ] - Cat.Run.2011.BDRiP.XViD-NOSCREENS/noscreen-cat.run-xvid.nfo (1.8 KB)
  • [ www.Torrenting.com ] - Cat.Run.2011.BDRiP.XViD-NOSCREENS/READ this before playing the Movie.txt (0.5 KB)
  • [ www.Torrenting.com ] - Cat.Run.2011.BDRiP.XViD-NOSCREENS/Sample/noscreen-cat.run-xvid-sample.avi (9.5 MB)
  • [ www.Torrenting.com ] - Cat.Run.2011.BDRiP.XViD-NOSCREENS/Subs/english/noscreen-cat.run-xvid.idx (64.9 KB)
  • [ www.Torrenting.com ] - Cat.Run.2011.BDRiP.XViD-NOSCREENS/Subs/english/noscreen-cat.run-xvid.sub (9.1 MB)
  • [ www.Torrenting.com ] - Cat.Run.2011.BDRiP.XViD-NOSCREENS/Subs/english_forced/noscreen-cat.run-xvid.idx (3.9 KB)
  • [ www.Torrenting.com ] - Cat.Run.2011.BDRiP.XViD-NOSCREENS/Subs/english_forced/noscreen-cat.run-xvid.sub (0.4 MB)
  • [ www.Torrenting.com ] - Cat.Run.2011.BDRiP.XViD-NOSCREENS/www.Torrenting.com.txt (0.5 KB)

Comments:


Add report or comment (250 words maximum)

I'd like:  
Type text from captcha: