Our friends

The Amazing Race S19E11 480p HDTV x264-mSD torrent

Torrent info

Date 2011-12-06 00:48:34
Category Series/TV Shows
Hash d38b0b8aa195ff5638da4b024fd1ecdb0d4fcf38
Seeds / Leechs -1 / -1 refresh
Full size 448 MB
Tracker http://tracker.thepiratebay.org/announce
Tags amazing race s19e11 480p hdtv x264
Download – The Amazing Race S19E11 480p HDTV x264-mSD Download direct – no client needed

Related torrents

GP3 Series 2012 Monaco Grand Prix Race 2 480p HDTV x264-mSD
The Amazing Race S21E05 480p HDTV x264-mSD
The Amazing Race S22E01 480p HDTV x264-mSD
[ www.TorrentDay.com ] - The.Amazing.Race.S22E02.480p.HDTV.x264-mSD

Torrent's content info

The.Amazing.Race.S19E11.480p.HDTV.x264-mSD.mkv

The Amazing Race S19E11 480p HDTV x264-mSD screenshot
  • Screenshot 1
  • Screenshot 2
  • Screenshot 3
  • Screenshot 4
  • Screenshot 5
  • Screenshot 6
  • Screenshot 7
  • Screenshot 8
  • Screenshot 9

Duration: 00:43:21.87, start: 0.000000, bitrate: N/A
Stream #0.0(eng): Video: h264, yuv420p, 852x480, PAR 1:1 DAR 71:40, 59.94 fps, 59.94 tbr, 1k tbn, 119.88 tbc
--
title : (m)iCRO(S)iZED(D)OWNLOADS
Stream #0.1: Audio: aac, 48000 Hz, stereo, s16

Check the movie's sound/language:

Text sample Text sample from The.Amazing.Race.S19E11.480p.HDTV.x264-mSD.nfo

[color=blue][b][img]http://lookpic.com/mz/77666-g.jpg[/img]

The.Amazing.Race.S19E11.480p.HDTV.x264-mSD [MKV 448MB]

[/b][/color] This reality television game show pits 11 teams against each other in a worldwide, 30 to 40-day journey through diverse cities and countries spanning the globe.
The first team to reach the final destination will be rewarded with 1 million.

http://thetvdb.com/?tab=seasonall&id=77666

[pre]...............................................
. The.Amazing.Race.S19E11.480p.HDTV.x264-mSD.mkv
.......................................
. Duration :: 43 Minutes
. Release Size :: 448MB (72% Compress)
. x264 r2106 :: 1 290 Kbps
. AAC 2ch CBR :: 128 Kbps
. Resolution (AR) :: 852x480 (1.775)
....................

Source : The.Amazing.Race.S19E11.720p.HDTV.X264-DIMENSION : 1.57GB

raw info: 852x480p 0:0 @ 10000000/166833 fps (cfr)
x264 info: profile High, level 4.1
x264 info: frame I:1425 Avg QP:26.21 size: 26712
x264 info: frame P:66082 Avg QP:30.36 ...

Read full text


Text sample Text sample from Torrent have been downloaded from Scenetime.com.txt

torrent has been downloaded from : http://www.scenetime.com

Join now and enjoy the fast speed downloads at www.scenetime.com

For Highres - TV shows and movies visit www.scenetime.com.




Text sample Text sample from Read this before playing this Video.txt

torrent has been downloaded from : http://www.scenetime.com

Join now and enjoy the fast speed downloads at www.scenetime.com

For Highres - TV shows and movies visit www.scenetime.com.




Contents of download:

448 megabyte in 4 files
The Amazing Race S19E11 480p HDTV x264-mSD
  • {www.scenetime.com}The.Amazing.Race.S19E11.480p.HDTV.x264-mSD/Read this before playing this Video.txt (0.2 KB)
  • {www.scenetime.com}The.Amazing.Race.S19E11.480p.HDTV.x264-mSD/The.Amazing.Race.S19E11.480p.HDTV.x264-mSD.mkv (448 MB)
  • {www.scenetime.com}The.Amazing.Race.S19E11.480p.HDTV.x264-mSD/The.Amazing.Race.S19E11.480p.HDTV.x264-mSD.nfo (1.4 KB)
  • {www.scenetime.com}The.Amazing.Race.S19E11.480p.HDTV.x264-mSD/Torrent have been downloaded from Scenetime.com.txt (0.2 KB)

Comments:


Add report or comment (250 words maximum)

I'd like:  
Type text from captcha: