Our friends

[RyRo] Digimon Xros Wars - 22 (1280x720 x264 AAC) [57CBE198].mkv torrent

Torrent info

Date 2011-12-06 00:49:58
Category Anime
Hash 882ea66124078d4586b0195e8dabef0f5deef550
Seeds / Leechs -1 / -1 refresh
Full size 275 MB
Tracker http://bt.edwardk.info:6969/scrape
Tags ryro digimon xros wars 1280x720 x264 57cbe198

Related torrents

[Lunar] Macross Frontier - 10 v2 [1280x720][x264][045D476F] mkv
[Lunar] Macross Frontier - 17 [1280x720][x264][B717D1DD] mkv
[Lunar] Macross Frontier - 12 [1280x720][x264][BE1B2823] mkv
[Lunar] Macross Frontier - 14 [1280x720][x264][20140B45] mkv

Torrent's content info

[RyRo]_Digimon_Xros_Wars_-_22_(1280x720_x264_AAC)_[57CBE198].mkv

[RyRo] Digimon Xros Wars - 22 (1280x720 x264 AAC) [57CBE198].mkv screenshot
  • Screenshot 1
  • Screenshot 2
  • Screenshot 3
  • Screenshot 4
  • Screenshot 5
  • Screenshot 6
  • Screenshot 7
  • Screenshot 8
  • Screenshot 9

Duration: 00:22:04.99, start: 0.000000, bitrate: N/A
Stream #0.0(jpn): Video: h264, yuv420p, 1280x720, PAR 1:1 DAR 16:9, 23.98 tbr, 1k tbn, 47.95 tbc
Stream #0.1(jpn): Audio: aac, 48000 Hz, stereo, s16
Stream #0.2(eng): Subtitle: 0x0000
Stream #0.3: Attachment: 0x0000
Stream #0.4: Attachment: 0x0000
Stream #0.5: Attachment: 0x0000

Check the movie's sound/language:

Contents of download:

275 megabyte in 1 files
[RyRo] Digimon Xros Wars - 22 (1280x720 x264 AAC) [57CBE198].mkv
  • [RyRo]_Digimon_Xros_Wars_-_22_(1280x720_x264_AAC)_[57CBE198].mkv (275 MB)

Comments:


Add report or comment (250 words maximum)

I'd like:  
Type text from captcha: