Our friends

Cutting Through the Matrix - Dec 02 FR sebaygo1 torrent

Torrent info

Date 2011-12-06 01:15:11
Category Other
Hash d2433c95086d3f047dd96ab2607beb67ae9b9737
Seeds / Leechs -1 / -1 refresh
Full size 11 MB
Tracker http://tracker.1337x.org/scrape
Tags cutting through matrix sebaygo1

Related torrents

Alan Watt - Cutting Through The Matrix - week 38, 2008
Alan Watt - Cutting Through The Matrix - week 1-26, 2008
Cutting Through the Matrix - Sep 27 TU [sebaygo1]
Cutting Through the Matrix - Dec 21 WE [sebaygo1]

Torrent's content info

20 seconds audio samples

CTtM-AlanWatt_2011_12_02_a_sample.mp3
Audio file info Duration: 00:23:53.03, start: 0.000000, bitrate: 32 kb/s
Stream #0.0: Audio: mp3, 22050 Hz, 1 channels, s16, 32 kb/s
CTtM-AlanWatt_2011_12_02_b_sample.mp3
Audio file info Duration: 00:22:47.33, start: 0.000000, bitrate: 32 kb/s
Stream #0.0: Audio: mp3, 22050 Hz, 1 channels, s16, 32 kb/s

Text sample Text sample from CTtM-AlanWatt_show-info_2011_12_02.txt.nfo

.

Cutting Through the Matrix
= with Alan Watt =
Friday, 02 December 2011


[sebaygo1]


This audio is from an RBN podcast file recorded live from the Republic Broadcasting Network stream. Network commercials have been edited out.


Visit Alan Watt's main website -- www.cuttingthroughthematrix.com -- to download podcasts, read show summaries, and purchase books, DVDs and special audio recordings by him.

Official websites include:
cuttingthroughthematrix.com
cuttingthroughthematrix.net
cuttingthroughthematrix.org
cuttingthroughthematrix.us
cuttingthroughthematrix.ca
alanwattcuttingthroughthematrix.ca
alanwattsentientsentinel.eu



#%#%#%#%#%#%#%#%#%#%#%#%#%#%#%#%#%#%#%#%#%#%#%#%#%#%#
Not able to find a torrent of mine where or when you
expected it?
Check out my torrents blog for info about what I am
uploading, tracker problems, etc..

Some sites will not allow a blogspot URL in an
uploaded torrent's description, so I have included
the blog's web address in a file...

Read full text


Contents of download:

11 megabyte in 5 files
Cutting Through the Matrix - Dec 02 FR sebaygo1
  • CTtM-AlanWatt_2011_12_02/CTtM-AlanWatt_2011_12_02_a.mp3 (5.5 MB)
  • CTtM-AlanWatt_2011_12_02/CTtM-AlanWatt_2011_12_02_b.mp3 (5.2 MB)
  • CTtM-AlanWatt_2011_12_02/CTtM-AlanWatt_2011_12_02_playlist.m3u (0.1 KB)
  • CTtM-AlanWatt_2011_12_02/CTtM-AlanWatt_show-info_2011_12_02.txt.nfo (3 KB)
  • CTtM-AlanWatt_2011_12_02/sebaygo1_TorrentsAndBlogInfo_ver2.pdf (9.3 KB)

Comments:


Add report or comment (250 words maximum)

I'd like:  
Type text from captcha: