Our friends

VA-Bluegrass Classics-Appalachian Stomp-1995 torrent

Torrent info

Date 2011-12-08 19:47:55
Category Music
Hash 3ee68d9c0cc063dd693d5367652e156bc26a5b33
Seeds / Leechs -1 / -1 refresh
Full size 58 MB
Tracker http://tracker.thepiratebay.org/announce
Tags bluegrass classics appalachian stomp 1995
Download – VA-Bluegrass Classics-Appalachian Stomp-1995 Download direct – no client needed

Related torrents

100 Greatest Classics - Volume Five
Police - Every Breath You Take (the classics 1995) - Zz
ANTHRAX - 1995 - Stomp 442 (320)[666cross][H33T]
VA - Appalachian Stomp: Bluegrass Clas..

Torrent's content info

20 seconds audio samples

Appalachian stomp Bluegrass Classics-03-Stanley Bros.& The Clinch Mountain Boys-This weary heart you stole away_sample.mp3
Audio file info Duration: 00:02:41.58, start: 0.000000, bitrate: 160 kb/s
Stream #0.0: Audio: mp3, 44100 Hz, 2 channels, s16, 160 kb/s
Appalachian stomp Bluegrass Classics-16-J.D. Crowe & The New South-Old home place_sample.mp3
Audio file info Duration: 00:02:49.26, start: 0.000000, bitrate: 160 kb/s
Stream #0.0: Audio: mp3, 44100 Hz, 2 channels, s16, 160 kb/s
Appalachian stomp Bluegrass Classics-02-Lester Flatt & Scruggs & The Foggy Mountain Boys-Foggymountain break down_sample.mp3
Audio file info Duration: 00:02:42.71, start: 0.000000, bitrate: 160 kb/s
Stream #0.0: Audio: mp3, 44100 Hz, 2 channels, s16, 160 kb/s
Appalachian stomp Bluegrass Classics-14-Eric Weissberg & Steve Mandell-Dueling banjosey_sample.mp3
Audio file info Duration: 00:02:20.28, start: 0.000000, bitrate: 160 kb/s
Stream #0.0: Audio: mp3, 44100 Hz, 2 channels, s16, 160 kb/s

Contents of download:

58 megabyte in 21 files
VA-Bluegrass Classics-Appalachian Stomp-1995
  • VA-Bluegrass Classics-Appalachian Stomp-1995/Appalachian stomp Bluegrass Classics-15-Nitty Gritty Dirt Band-Will the circle be unbroken.mp3 (5.6 MB)
  • VA-Bluegrass Classics-Appalachian Stomp-1995/Appalachian stomp Bluegrass Classics-17-Rick Skaggs-Little cabin on the hill.mp3 (3.9 MB)
  • VA-Bluegrass Classics-Appalachian Stomp-1995/Appalachian stomp Bluegrass Classics-08-Stanley Brothers-Orange blossom special.mp3 (3.6 MB)
  • VA-Bluegrass Classics-Appalachian Stomp-1995/Appalachian stomp Bluegrass Classics-12-Country Gentlemen-Roving Gambler.mp3 (3.6 MB)
  • VA-Bluegrass Classics-Appalachian Stomp-1995/Appalachian stomp Bluegrass Classics-05-Jimmy Martin-You don`t know my mind.mp3 (3.4 MB)
  • VA-Bluegrass Classics-Appalachian Stomp-1995/Appalachian stomp Bluegrass Classics-11-Kentucky Colonels-Nine pound hammer.mp3 (3.2 MB)
  • VA-Bluegrass Classics-Appalachian Stomp-1995/Appalachian stomp Bluegrass Classics-16-J.D. Crowe & The New South-Old home place.mp3 (3.2 MB)
  • VA-Bluegrass Classics-Appalachian Stomp-1995/Appalachian stomp Bluegrass Classics-01-Bill Monroe and his Bluegrass boys-Uncle pin.mp3 (3.2 MB)
  • VA-Bluegrass Classics-Appalachian Stomp-1995/Appalachian stomp Bluegrass Classics-02-Lester Flatt & Scruggs & The Foggy Mountain Boys-Foggymountain break down.mp3 (3.1 MB)
  • VA-Bluegrass Classics-Appalachian Stomp-1995/Appalachian stomp Bluegrass Classics-13-Del McCoury-Roll in my sweet baby`s arms.mp3 (3.1 MB)
  • VA-Bluegrass Classics-Appalachian Stomp-1995/Appalachian stomp Bluegrass Classics-03-Stanley Bros.& The Clinch Mountain Boys-This weary heart you stole away.mp3 (3.1 MB)
  • VA-Bluegrass Classics-Appalachian Stomp-1995/Appalachian stomp Bluegrass Classics-06-Osborne Brothers-Rocky top.mp3 (3 MB)
  • VA-Bluegrass Classics-Appalachian Stomp-1995/Appalachian stomp Bluegrass Classics-04-Jim & Jesse (McReynold bros.) & The Clinch Mountain Boys-Are you missing me.mp3 (2.8 MB)
  • VA-Bluegrass Classics-Appalachian Stomp-1995/Appalachian stomp Bluegrass Classics-18-Alison Krauss & Union station-Love you in vain.mp3 (2.7 MB)
  • VA-Bluegrass Classics-Appalachian Stomp-1995/Appalachian stomp Bluegrass Classics-14-Eric Weissberg & Steve Mandell-Dueling banjosey.mp3 (2.7 MB)
  • VA-Bluegrass Classics-Appalachian Stomp-1995/Appalachian stomp Bluegrass Classics-07-Bill Monroe & Bluegrass boys-Blue moon of kentucky.mp3 (2.5 MB)
  • VA-Bluegrass Classics-Appalachian Stomp-1995/Appalachian stomp Bluegrass Classics-09-Lester Flatt & Scruggs & The Foggy Mountain Boys-The ballad of Jed Clampett.mp3 (2.4 MB)
  • VA-Bluegrass Classics-Appalachian Stomp-1995/Appalachian stomp Bluegrass Classics-10-Dillards-Dooley.mp3 (2.4 MB)
  • VA-Bluegrass Classics-Appalachian Stomp-1995/Appalachian stomp Bluegrass classics_Front.jpg (0.4 MB)
  • VA-Bluegrass Classics-Appalachian Stomp-1995/Appalachian stomp Bluegrass classics_Inside.jpg (0.3 MB)
  • VA-Bluegrass Classics-Appalachian Stomp-1995/Appalachian stomp Bluegrass classics_Back.jpg (0.2 MB)

Comments:


Add report or comment (250 words maximum)

I'd like:  
Type text from captcha: