Our friends

[WSRN-Licca] Mermaid Melody Pichi Pichi Pitch Pure - 01v2 [DVD XviD 640x480] [2AFCA1C3].avi torrent

Torrent info

Date 2011-12-10 00:46:17
Category Anime
Hash 81ec0ca77506e4583b6df9e6808a779cc8b8a92b
Seeds / Leechs -1 / -1 refresh
Full size 234 MB
Tracker http://nyaatorrents.info:7266/00000000000000000000000000000000/scrape
Tags wsrn licca mermaid melody pichi pichi pitch pure 01v2 xvid 640x480 2afca1c3

Related torrents

Mermaid Melody 02 - DVDRIP
Mermaid Melody 01 - DVDRIP
Mermaid Melody 03 - DVDRIP
Mermaid Melody 04 - DVDRIP

Torrent's content info

[WSRN-Licca] Mermaid Melody Pichi Pichi Pitch Pure - 01v2 [DVD XviD 640x480] [2AFCA1C3].avi

[WSRN-Licca] Mermaid Melody Pichi Pichi Pitch Pure - 01v2 [DVD XviD 640x480] [2AFCA1C3].avi screenshot
  • Screenshot 1
  • Screenshot 2
  • Screenshot 3
  • Screenshot 4
  • Screenshot 5
  • Screenshot 6
  • Screenshot 7
  • Screenshot 8
  • Screenshot 9

Duration: 00:24:21.42, start: 0.000000, bitrate: 1344 kb/s
Stream #0.0: Video: mpeg4, yuv420p, 640x480 [PAR 1:1 DAR 4:3], 29.97 tbr, 29.97 tbn, 29.97 tbc
Stream #0.1: Audio: mp3, 48000 Hz, 2 channels, s16, 128 kb/s

Check the movie's sound/language:

Contents of download:

234 megabyte in 1 files
[WSRN-Licca] Mermaid Melody Pichi Pichi Pitch Pure - 01v2 [DVD XviD 640x480] [2AFCA1C3].avi
  • [WSRN-Licca] Mermaid Melody Pichi Pichi Pitch Pure - 01v2 [DVD XviD 640x480] [2AFCA1C3].avi (234 MB)

Comments:


Add report or comment (250 words maximum)

I'd like:  
Type text from captcha: