Our friends

Arena 2011 720p BluRay x264 DTS-HDChina torrent

Torrent info

Date 2011-12-13 19:47:01
Category Movies
Hash 97a7958f679af39d55a233c7a0d7b9f2f358ff87
Seeds / Leechs 17 / 6 refresh
Full size 5661 MB
Tracker http://tracker.thepiratebay.org/announce
Tags arena 2011 720p bluray x264 hdchina
Download – Arena 2011 720p BluRay x264 DTS-HDChina Download direct – no client needed

Related torrents

Arena 2011 720p BluRay x264 DTS-HDChina
War Horse EXTRAS 2011 720p BluRay x264-HDChina [PHD]
Paranormal Xperience 2011 720p BluRay x264-HDChina [PublicHD]
Timescapes 2011 720p BluRay x264-HDChina [PublicHD]

Torrent's content info

Arena.2011.720p.BluRay.x264.DTS-HDChina.mkv

Arena 2011 720p BluRay x264 DTS-HDChina screenshot
  • Screenshot 1
  • Screenshot 2
  • Screenshot 3
  • Screenshot 4
  • Screenshot 5
  • Screenshot 6
  • Screenshot 7
  • Screenshot 8
  • Screenshot 9

Duration: 01:34:13.65, start: 0.000000, bitrate: N/A
Stream #0.0(eng): Video: h264, yuv420p, 1280x542 [PAR 1:1 DAR 640:271], 23.98 fps, 24 tbr, 1k tbn, 47.95 tbc
Stream #0.1: Audio: dca, 48000 Hz, 6 channels, s16

Check the movie's sound/language:

Contents of download:

5661 megabyte in 2 files
Arena 2011 720p BluRay x264 DTS-HDChina
  • Arena.2011.720p.BluRay.x264.DTS-HDC/Arena.2011.720p.BluRay.x264.DTS-HDChina.mkv (5597 MB)
  • Arena.2011.720p.BluRay.x264.DTS-HDC/sample/Arena.2011.720p.BluRay.x264.DTS-HDChina.sample.mkv (64 MB)

Comments:


Add report or comment (250 words maximum)

I'd like:  
Type text from captcha: