Our friends

Cutting Through the Matrix - Dec 08 TH sebaygo1 torrent

Torrent info

Date 2011-12-14 00:46:24
Category Other
Hash 50c3088e6b4442874fc0e0dc47f1500f12278e5b
Seeds / Leechs -1 / -1 refresh
Full size 11 MB
Tracker http://tracker.publicbt.com/scrape
Tags cutting through matrix sebaygo1

Related torrents

Alan Watt - Cutting Through The Matrix - week 38, 2008
Alan Watt - Cutting Through The Matrix - week 1-26, 2008
Cutting Through the Matrix - Sep 27 TU [sebaygo1]
Cutting Through the Matrix - Dec 21 WE [sebaygo1]

Torrent's content info

20 seconds audio samples

CTtM-AlanWatt_2011_12_08_b_sample.mp3
Audio file info Duration: 00:23:01.26, start: 0.000000, bitrate: 32 kb/s
Stream #0.0: Audio: mp3, 22050 Hz, 1 channels, s16, 32 kb/s
CTtM-AlanWatt_2011_12_08_a_sample.mp3
Audio file info Duration: 00:23:50.73, start: 0.000000, bitrate: 32 kb/s
Stream #0.0: Audio: mp3, 22050 Hz, 1 channels, s16, 32 kb/s

Text sample Text sample from CTtM-AlanWatt_show-info_2011_12_08.txt.nfo

.

Cutting Through the Matrix
= with Alan Watt =
Thursday, 08 December 2011


[sebaygo1]


This audio is from an RBN podcast file recorded live from the Republic Broadcasting Network stream. Network commercials have been edited out.


Visit Alan Watt's main website -- www.cuttingthroughthematrix.com -- to download podcasts, read show summaries, and purchase books, DVDs and special audio recordings by him.

Official websites include:
cuttingthroughthematrix.com
cuttingthroughthematrix.net
cuttingthroughthematrix.org
cuttingthroughthematrix.us
cuttingthroughthematrix.ca
alanwattcuttingthroughthematrix.ca
alanwattsentientsentinel.eu



#%#%#%#%#%#%#%#%#%#%#%#%#%#%#%#%#%#%#%#%#%#%#%#%#%#%#
Not able to find a torrent of mine where or when you
expected it?
Check out my torrents blog for info about what I am
uploading, tracker problems, etc..

Some sites will not allow a blogspot URL in an
uploaded torrent's description, so I have included
the blog's web address in a file...

Read full text


Contents of download:

11 megabyte in 5 files
Cutting Through the Matrix - Dec 08 TH sebaygo1
  • CTtM-AlanWatt_2011_12_08/CTtM-AlanWatt_2011_12_08_a.mp3 (5.5 MB)
  • CTtM-AlanWatt_2011_12_08/CTtM-AlanWatt_2011_12_08_b.mp3 (5.3 MB)
  • CTtM-AlanWatt_2011_12_08/CTtM-AlanWatt_2011_12_08_playlist.m3u (0.1 KB)
  • CTtM-AlanWatt_2011_12_08/CTtM-AlanWatt_show-info_2011_12_08.txt.nfo (3 KB)
  • CTtM-AlanWatt_2011_12_08/sebaygo1_TorrentsAndBlogInfo_ver2.pdf (9.3 KB)

Comments:


Add report or comment (250 words maximum)

I'd like:  
Type text from captcha: