Our friends

Iron.Monkey.1993.BRrip.720p.Trilple.Audio.Chi-Eng-Hindi~MSBHATTI torrent

Torrent info

Date 2011-12-14 00:53:20
Category Movies
Hash 890c82ce7e6215e107f1d7e50624c49367569900
Seeds / Leechs -1 / -1 refresh
Full size 2724 MB
Tracker http://tracker.publicbt.com/scrape
Tags iron monkey 1993 brrip 720p trilple audio hindi msbhatti

Related torrents

Oceans Trilogy BRRip-720p[Dual-Audio][Hindi-Eng]-RedHeart
Your Highness (2011) BRRip 720p Dual Audio [Hindi-Eng] XMR
Sherlock Holmes A Game Of Shadows 2011.BRRip.720p [Dual Audio].[Hindi+English]--prisak~~{HKRG}
The Bounty Hunter 2010 .BRRip.720p Dual Audio Hindi-Eng by hunter

Torrent's content info

Iron.Monkey.1993.BRrip.720p.Trilple.Audio.Chi-Eng-Hindi~MSBHATTI.mkv

Iron.Monkey.1993.BRrip.720p.Trilple.Audio.Chi-Eng-Hindi~MSBHATTI screenshot
  • Screenshot 1
  • Screenshot 2
  • Screenshot 3
  • Screenshot 4
  • Screenshot 5
  • Screenshot 6
  • Screenshot 7
  • Screenshot 8
  • Screenshot 9

Duration: 01:22:26.25, start: 0.000000, bitrate: 1536 kb/s
Stream #0.0(chi): Video: h264, yuv420p, 1280x692, PAR 1:1 DAR 320:173, 25 fps, 25 tbr, 1k tbn, 47.95 tbc
Stream #0.1(chi): Audio: ac3, 48000 Hz, 5.1, s16, 640 kb/s
--
title : MSBHATTI
Stream #0.2(eng): Audio: ac3, 48000 Hz, 5.1, s16, 640 kb/s
--
title : MSBHATTI
Stream #0.3(hin): Audio: mp3, 48000 Hz, 2 channels, s16, 256 kb/s

Check the movie's sound/language:

Text sample Text sample from INFO.txt

Read full text


Text sample Text sample from JOIN IN FACE BOOK N ORKUT..txt





=!JOIN OUR COMMUNITY IN FACE BOOK N ORKUT!=








[1]Upcoming torrent screenshots zone
[2]Upcomiing torrent sample zone
[3]Request zone
[4]chat zone








This is a link of our community plz join here




http://www.facebook.com/home.php?sk=group_172553342755574

http://www.orkut.co.in/Main#Community?cmm=101191126



Official site

http://www.hddesirockers.com/











Contents of download:

2724 megabyte in 11 files
Iron.Monkey.1993.BRrip.720p.Trilple.Audio.Chi-Eng-Hindi~MSBHATTI
  • Iron.Monkey.1993.BRrip.720p.Trilple.Audio.Chi-Eng-Hindi~MSBHATTI/Sample/Iron.Monkey.1993.BRrip.720p.Trilple.Audio.Chi-Eng-Hindi~MSBHATTI (Sample).mkv (37 MB)
  • Iron.Monkey.1993.BRrip.720p.Trilple.Audio.Chi-Eng-Hindi~MSBHATTI/Screenshots/007_Q7611DZJ4ANQ32R.png (0.5 MB)
  • Iron.Monkey.1993.BRrip.720p.Trilple.Audio.Chi-Eng-Hindi~MSBHATTI/Screenshots/003_Q7611DZJ4ANQ32R.png (0.5 MB)
  • Iron.Monkey.1993.BRrip.720p.Trilple.Audio.Chi-Eng-Hindi~MSBHATTI/Screenshots/001_Q7611DZJ4ANQ32R.png (0.5 MB)
  • Iron.Monkey.1993.BRrip.720p.Trilple.Audio.Chi-Eng-Hindi~MSBHATTI/Screenshots/005_Q7611DZJ4ANQ32R.png (0.5 MB)
  • Iron.Monkey.1993.BRrip.720p.Trilple.Audio.Chi-Eng-Hindi~MSBHATTI/Screenshots/004_Q7611DZJ4ANQ32R.png (0.4 MB)
  • Iron.Monkey.1993.BRrip.720p.Trilple.Audio.Chi-Eng-Hindi~MSBHATTI/Screenshots/002_Q7611DZJ4ANQ32R.png (0.4 MB)
  • Iron.Monkey.1993.BRrip.720p.Trilple.Audio.Chi-Eng-Hindi~MSBHATTI/Iron.Monkey.1993.BRrip.720p.Trilple.Audio.Chi-Eng-Hindi~MSBHATTI.mkv (2684 MB)
  • Iron.Monkey.1993.BRrip.720p.Trilple.Audio.Chi-Eng-Hindi~MSBHATTI/Iron Monkey Front Cover.jpg (0.1 MB)
  • Iron.Monkey.1993.BRrip.720p.Trilple.Audio.Chi-Eng-Hindi~MSBHATTI/INFO.txt (8.6 KB)
  • Iron.Monkey.1993.BRrip.720p.Trilple.Audio.Chi-Eng-Hindi~MSBHATTI/JOIN IN FACE BOOK N ORKUT..txt (0.7 KB)

Comments:


Add report or comment (250 words maximum)

I'd like:  
Type text from captcha: