Our friends

Korn f. Kill the Noise & Skrillex - Narcissistic Cannibal Remixes EP-VarMp3- (2011) torrent

Torrent info

Date 2011-12-15 00:51:59
Category Music
Hash a04eefe34cfb1ec21f9866c23558c187c1192dcb
Seeds / Leechs -1 / -1 refresh
Full size 88 MB
Tracker http://inferno.demonoid.me:3413/scrape
Tags korn kill noise skrillex narcissistic cannibal remixes varmp3 2011

Related torrents

Ladytron - Ace Of Hz Remixes Proper (2011) vtwin88cube
Fatboy Slim and Lazy Rich - Gangster Trippin [Remixes]-SKINT213D-(2011)-320kbps-[GRG]-
VA - Ministry Of Sound The Annual Spring [3.MIXED.CD]-VarMp3-(2011)-
Calvin Harris f. Kelis - Bounce [Remixes]-320kbps-(2011)

Torrent's content info

20 seconds audio samples

05-korn_feat_skrillex_and_kill_the_noise--narcissistic_cannibal_(dave_aude_club_mix)-wus_sample.mp3
Audio file info Duration: 00:07:17.86, start: 0.000000, bitrate: 260 kb/s
Stream #0.0: Audio: mp3, 44100 Hz, 2 channels, s16, 80 kb/s
03-korn_feat_skrillex_and_kill_the_noise--narcissistic_cannibal_(adrian_lux_and_blende_remix)-wus_sample.mp3
Audio file info Duration: 00:06:01.09, start: 0.000000, bitrate: 269 kb/s
Stream #0.0: Audio: mp3, 44100 Hz, 2 channels, s16, 56 kb/s
06-korn_feat_skrillex_and_kill_the_noise--narcissistic_cannibal_(dave_aude_dub)-wus_sample.mp3
Audio file info Duration: 00:07:05.79, start: 0.000000, bitrate: 258 kb/s
Stream #0.0: Audio: mp3, 44100 Hz, 2 channels, s16, 80 kb/s
02-korn_feat_skrillex_and_kill_the_noise--narcissistic_cannibal_(dirty_freqs_mix_show_remix)-wus_sample.mp3
Audio file info Duration: 00:04:58.16, start: 0.000000, bitrate: 257 kb/s
Stream #0.0: Audio: mp3, 44100 Hz, 2 channels, s16, 160 kb/s

Text sample Text sample from torrent downloaded from Demonoid.me.txt

Torrent downloaded from http://www.Demonoid.me




Contents of download:

88 megabyte in 10 files
Korn f. Kill the Noise & Skrillex - Narcissistic Cannibal Remixes EP-VarMp3- (2011)
  • Korn f. Kill the Noise & Skrillex - Narcissistic Cannibal Remixes [EP]-VarMp3- (2011)/05-korn_feat_skrillex_and_kill_the_noise--narcissistic_cannibal_(dave_aude_club_mix)-wus.mp3 (14 MB)
  • Korn f. Kill the Noise & Skrillex - Narcissistic Cannibal Remixes [EP]-VarMp3- (2011)/06-korn_feat_skrillex_and_kill_the_noise--narcissistic_cannibal_(dave_aude_dub)-wus.mp3 (13 MB)
  • Korn f. Kill the Noise & Skrillex - Narcissistic Cannibal Remixes [EP]-VarMp3- (2011)/01-korn_feat_skrillex_and_kill_the_noise--narcissistic_cannibal_(dirty_freqs_dub)-wus.mp3 (13 MB)
  • Korn f. Kill the Noise & Skrillex - Narcissistic Cannibal Remixes [EP]-VarMp3- (2011)/04-korn_feat_skrillex_and_kill_the_noise--narcissistic_cannibal_(andre_giant_remix)-wus.mp3 (12 MB)
  • Korn f. Kill the Noise & Skrillex - Narcissistic Cannibal Remixes [EP]-VarMp3- (2011)/03-korn_feat_skrillex_and_kill_the_noise--narcissistic_cannibal_(adrian_lux_and_blende_remix)-wus.mp3 (12 MB)
  • Korn f. Kill the Noise & Skrillex - Narcissistic Cannibal Remixes [EP]-VarMp3- (2011)/02-korn_feat_skrillex_and_kill_the_noise--narcissistic_cannibal_(dirty_freqs_mix_show_remix)-wus.mp3 (9.2 MB)
  • Korn f. Kill the Noise & Skrillex - Narcissistic Cannibal Remixes [EP]-VarMp3- (2011)/08-korn_feat_skrillex_and_kill_the_noise--narcissistic_cannibal_(j._rabbit_remix)-wus.mp3 (8.5 MB)
  • Korn f. Kill the Noise & Skrillex - Narcissistic Cannibal Remixes [EP]-VarMp3- (2011)/07-korn_feat_skrillex_and_kill_the_noise--narcissistic_cannibal_(dave_aude_radio_mix)-wus.mp3 (7.1 MB)
  • Korn f. Kill the Noise & Skrillex - Narcissistic Cannibal Remixes [EP]-VarMp3- (2011)/Cover.jpg (35.9 KB)
  • Korn f. Kill the Noise & Skrillex - Narcissistic Cannibal Remixes [EP]-VarMp3- (2011)/torrent downloaded from Demonoid.me.txt (0 KB)

Comments:


Add report or comment (250 words maximum)

I'd like:  
Type text from captcha: