Our friends

Arena (2011) 720p BluRay x264 - 650MB - YIFY torrent

Torrent info

Date 2011-12-15 10:46:16
Category Movies
Hash 59deea165c15429183e82dbe04c0a90bf5d49109
Seeds / Leechs -1 / -1 refresh
Full size 650 MB
Tracker http://tracker.thepiratebay.org/announce
Tags arena 2011 720p bluray x264 650mb yify
Download – Arena (2011) 720p BluRay x264 - 650MB - YIFY Download direct – no client needed

Related torrents

Win Win (2011) 720p BrRip x264 - 650MB - YIFY
Thats What I Am (2011) 720p BrRip x264 - 650MB - YIFY
Lucky (2011) 720p BrRip x264 - 650MB - YIFY
Arena 2011 720p BluRay x264 DTS-HDChina

Torrent's content info

Arena.2011.720p.BluRay.x264.YIFY.mp4

Arena (2011) 720p BluRay x264 - 650MB - YIFY screenshot
  • Screenshot 1
  • Screenshot 2
  • Screenshot 3
  • Screenshot 4
  • Screenshot 5
  • Screenshot 6
  • Screenshot 7
  • Screenshot 8
  • Screenshot 9

Duration: 01:34:13.87, start: 0.000000, bitrate: 964 kb/s
Stream #0.0(und): Video: h264, yuv420p, 1280x542 [PAR 1:1 DAR 640:271], 897 kb/s, 23.98 fps, 23.98 tbr, 96k tbn, 47.95 tbc
Stream #0.1(und): Audio: aac, 22050 Hz, stereo, s16, 63 kb/s

Check the movie's sound/language:

Text sample Text sample from AhaShare.com.txt

Share the fun!!!
Torrent downloaded from AhaShare.com




Text sample Text sample from Torrent downloaded from Demonoid.com - Copy.txt

Torrent downloaded from http://www.Demonoid.com




Text sample Text sample from Torrent Downloaded From ExtraTorrent.com.txt

Torrent Downloaded From ExtraTorrent.com





- The biggest torrent community



- No fake torrents, All torrents checked by our Moderators



- The latest torrent releases



- The most helpful members and site admins



- Be updated with the latest news in the p2p world with ExtraTorrent



- The best forum community in the p2p world




Contents of download:

650 megabyte in 6 files
Arena (2011) 720p BluRay x264 - 650MB - YIFY
  • Arena (2011)/Arena.2011.720p.BluRay.x264.YIFY.mp4 (650 MB)
  • Arena (2011)/Arena.2011.720p.BluRay.x264.YIFY.srt (49.3 KB)
  • Arena (2011)/Other/AhaShare.com.txt (0.1 KB)
  • Arena (2011)/Other/Torrent downloaded from Demonoid.com - Copy.txt (0 KB)
  • Arena (2011)/Other/Torrent Downloaded From ExtraTorrent.com.txt (0.3 KB)
  • Arena (2011)/WWW.YIFY-TORRENTS.COM.jpg (0.1 MB)

Comments:


Add report or comment (250 words maximum)

I'd like:  
Type text from captcha: