Our friends

Smurfs, The [2011 PAL DVD][En Sv Da No Fi Subs[En Es Sv No Da Fi torrent

Torrent info

Date 2011-12-15 14:47:26
Category Movies
Hash 3d1474b8cef3df5c0e6d4a25cd58c3535b4a8325
Seeds / Leechs 4 / 1 refresh
Full size 4481 MB
Tracker http://tracker.thepiratebay.org/announce
Tags smurfs 2011 subs

Related torrents

The Smurfs (2011) TS XviD DutchReleaseTeam (dutch subs nl)
The Smurfs (2011) CAM DVD5 (dutch subs)NLT-Release
The Smurfs(2011)CAM nl subs Nlt-Release(Divx)
The Smurfs (2011), TS(xvid), NL Subs, DMT

Torrent's content info

VTS_01_4.VOB

Smurfs, The [2011 PAL DVD][En Sv Da No Fi Subs[En Es Sv No Da Fi screenshot
  • Screenshot 1
  • Screenshot 2
  • Screenshot 3
  • Screenshot 4
  • Screenshot 5
  • Screenshot 6
  • Screenshot 7
  • Screenshot 8
  • Screenshot 9

Duration: 00:24:29.19, start: 452.095267, bitrate: 5846 kb/s
Stream #0.0[0x1e0]: Video: mpeg2video, yuv420p, 720x576 [PAR 64:45 DAR 16:9], 9800 kb/s, 27.14 fps, 25 tbr, 90k tbn, 50 tbc
Stream #0.1[0x80]: Audio: ac3, 48000 Hz, 5.1, s16, 448 kb/s
Stream #0.2[0x83]: Audio: ac3, 48000 Hz, stereo, s16, 192 kb/s
Stream #0.3[0x84]: Audio: ac3, 48000 Hz, stereo, s16, 192 kb/s
Stream #0.4[0x85]: Audio: ac3, 48000 Hz, stereo, s16, 192 kb/s
Stream #0.5[0x86]: Audio: ac3, 48000 Hz, stereo, s16, 192 kb/s
Stream #0.6[0x20]: Subtitle: dvdsub
Stream #0.7[0x21]: Subtitle: dvdsub
Stream #0.8[0x23]: Subtitle: dvdsub
Stream #0.9[0x24]: Subtitle: dvdsub
Stream #0.10[0x25]: Subtitle: dvdsub
Stream #0.11[0x26]: Subtitle: dvdsub

Check the movie's sound/language:

Text sample Text sample from Smurfs, The (nordic).txt

Read full text


Contents of download:

4481 megabyte in 18 files
Smurfs, The [2011 PAL DVD][En Sv Da No Fi Subs[En Es Sv No Da Fi
  • Smurfs, The [2011 PAL DVD][En.Sv.Da.No.Fi Subs[En.Es.Sv.No.Da.Fi]/FullDisc/THE_SMURFS_SCN/VIDEO_TS/VTS_01_1.VOB (1024 MB)
  • Smurfs, The [2011 PAL DVD][En.Sv.Da.No.Fi Subs[En.Es.Sv.No.Da.Fi]/FullDisc/THE_SMURFS_SCN/VIDEO_TS/VTS_01_4.VOB (1024 MB)
  • Smurfs, The [2011 PAL DVD][En.Sv.Da.No.Fi Subs[En.Es.Sv.No.Da.Fi]/FullDisc/THE_SMURFS_SCN/VIDEO_TS/VTS_01_3.VOB (1024 MB)
  • Smurfs, The [2011 PAL DVD][En.Sv.Da.No.Fi Subs[En.Es.Sv.No.Da.Fi]/FullDisc/THE_SMURFS_SCN/VIDEO_TS/VTS_01_2.VOB (1024 MB)
  • Smurfs, The [2011 PAL DVD][En.Sv.Da.No.Fi Subs[En.Es.Sv.No.Da.Fi]/FullDisc/THE_SMURFS_SCN/VIDEO_TS/VTS_02_1.VOB (235 MB)
  • Smurfs, The [2011 PAL DVD][En.Sv.Da.No.Fi Subs[En.Es.Sv.No.Da.Fi]/FullDisc/THE_SMURFS_SCN/VIDEO_TS/VTS_01_0.VOB (80 MB)
  • Smurfs, The [2011 PAL DVD][En.Sv.Da.No.Fi Subs[En.Es.Sv.No.Da.Fi]/FullDisc/THE_SMURFS_SCN/VIDEO_TS/VTS_01_5.VOB (69 MB)
  • Smurfs, The [2011 PAL DVD][En.Sv.Da.No.Fi Subs[En.Es.Sv.No.Da.Fi]/Covers/Smurfs, The-[inlay].jpg (0.8 MB)
  • Smurfs, The [2011 PAL DVD][En.Sv.Da.No.Fi Subs[En.Es.Sv.No.Da.Fi]/Covers/Smurfs, The.jpg (0.2 MB)
  • Smurfs, The [2011 PAL DVD][En.Sv.Da.No.Fi Subs[En.Es.Sv.No.Da.Fi]/Covers/Smurfs, The-[dvd].jpg (0.2 MB)
  • Smurfs, The [2011 PAL DVD][En.Sv.Da.No.Fi Subs[En.Es.Sv.No.Da.Fi]/FullDisc/THE_SMURFS_SCN/VIDEO_TS/VTS_01_0.BUP (74 KB)
  • Smurfs, The [2011 PAL DVD][En.Sv.Da.No.Fi Subs[En.Es.Sv.No.Da.Fi]/FullDisc/THE_SMURFS_SCN/VIDEO_TS/VTS_01_0.IFO (74 KB)
  • Smurfs, The [2011 PAL DVD][En.Sv.Da.No.Fi Subs[En.Es.Sv.No.Da.Fi]/Covers/Smurfs,_The.jpg (35.9 KB)
  • Smurfs, The [2011 PAL DVD][En.Sv.Da.No.Fi Subs[En.Es.Sv.No.Da.Fi]/FullDisc/THE_SMURFS_SCN/VIDEO_TS/VTS_02_0.BUP (16 KB)
  • Smurfs, The [2011 PAL DVD][En.Sv.Da.No.Fi Subs[En.Es.Sv.No.Da.Fi]/FullDisc/THE_SMURFS_SCN/VIDEO_TS/VTS_02_0.IFO (16 KB)
  • Smurfs, The [2011 PAL DVD][En.Sv.Da.No.Fi Subs[En.Es.Sv.No.Da.Fi]/FullDisc/THE_SMURFS_SCN/VIDEO_TS/VIDEO_TS.IFO (8 KB)
  • Smurfs, The [2011 PAL DVD][En.Sv.Da.No.Fi Subs[En.Es.Sv.No.Da.Fi]/FullDisc/THE_SMURFS_SCN/VIDEO_TS/VIDEO_TS.BUP (8 KB)
  • Smurfs, The [2011 PAL DVD][En.Sv.Da.No.Fi Subs[En.Es.Sv.No.Da.Fi]/Smurfs, The (nordic).txt (6.6 KB)

Comments:


Add report or comment (250 words maximum)

I'd like:  
Type text from captcha: