Our friends

The Human League - The Greatest Hits Collection torrent

Torrent info

Date 2011-12-16 12:46:10
Category Music
Hash aba146f8541917cc7ab66f5ce3d02d3bdeb3c767
Seeds / Leechs -1 / -1 refresh
Full size 428 MB
Tracker http://tracker.publicbt.com/scrape
Tags human league greatest hits collection

Related torrents

Brooks $ Dunn -The Greatest Hits Collection
Boyz II Men - Legacy - The Greatest Hits Collection (FLAC)
Enigma - Greatest Hits Collection [1999] KompletlyWyred DHZ Inc
The Human League (Greatest Hits) (AAC) (320kb/s) (CBR) (

Torrent's content info

20 seconds audio samples

05-Stay With Me Tonight.flac_sample.mp3
Audio file info Duration: 00:04:00.80, bitrate: 1030 kb/s
Stream #0.0: Audio: flac, 44100 Hz, 2 channels, s16
10-The Lebanon.flac_sample.mp3
Audio file info Duration: 00:03:43.42, bitrate: 925 kb/s
Stream #0.0: Audio: flac, 44100 Hz, 2 channels, s16
08-The Sound Of The Crowd.flac_sample.mp3
Audio file info Duration: 00:03:57.16, bitrate: 952 kb/s
Stream #0.0: Audio: flac, 44100 Hz, 2 channels, s16
03-Mirror Man.flac_sample.mp3
Audio file info Duration: 00:03:51.90, bitrate: 984 kb/s
Stream #0.0: Audio: flac, 44100 Hz, 2 channels, s16

Text sample Text sample from Torrent downloaded from Demonoid.me.txt

Torrent downloaded from http://www.Demonoid.me




Text sample Text sample from The Human League Greatest Hits 1995 Virgin.txt




Contents of download:

428 megabyte in 19 files
The Human League - The Greatest Hits Collection
  • The Human League Greatest Hits 1995 EAC Flac - superunitedkingdom/04-Tell Me When.flac (35 MB)
  • The Human League Greatest Hits 1995 EAC Flac - superunitedkingdom/05-Stay With Me Tonight.flac (30 MB)
  • The Human League Greatest Hits 1995 EAC Flac - superunitedkingdom/12-Louise.flac (29 MB)
  • The Human League Greatest Hits 1995 EAC Flac - superunitedkingdom/06-Open Your Heart.flac (28 MB)
  • The Human League Greatest Hits 1995 EAC Flac - superunitedkingdom/01-Don't You Want Me (Original Version).flac (27 MB)
  • The Human League Greatest Hits 1995 EAC Flac - superunitedkingdom/11-Love Is All That Matters.flac (27 MB)
  • The Human League Greatest Hits 1995 EAC Flac - superunitedkingdom/03-Mirror Man.flac (27 MB)
  • The Human League Greatest Hits 1995 EAC Flac - superunitedkingdom/02-Love Action (I Believe In Love).flac (27 MB)
  • The Human League Greatest Hits 1995 EAC Flac - superunitedkingdom/08-The Sound Of The Crowd.flac (27 MB)
  • The Human League Greatest Hits 1995 EAC Flac - superunitedkingdom/16-Don't You Want Me (Snap 7_ Remix).flac (27 MB)
  • The Human League Greatest Hits 1995 EAC Flac - superunitedkingdom/15-Human.flac (25 MB)
  • The Human League Greatest Hits 1995 EAC Flac - superunitedkingdom/10-The Lebanon.flac (25 MB)
  • The Human League Greatest Hits 1995 EAC Flac - superunitedkingdom/14-Together In Electric Dreams.flac (24 MB)
  • The Human League Greatest Hits 1995 EAC Flac - superunitedkingdom/07-(Keep Feeling) Fascination.flac (24 MB)
  • The Human League Greatest Hits 1995 EAC Flac - superunitedkingdom/13-Life On Your Own.flac (24 MB)
  • The Human League Greatest Hits 1995 EAC Flac - superunitedkingdom/09-Being Boiled.flac (21 MB)
  • The Human League Greatest Hits 1995 EAC Flac - superunitedkingdom/folder.jpg (0.2 MB)
  • The Human League Greatest Hits 1995 EAC Flac - superunitedkingdom/Torrent downloaded from Demonoid.me.txt (0 KB)
  • The Human League Greatest Hits 1995 EAC Flac - superunitedkingdom/The Human League Greatest Hits 1995 Virgin.txt (0 KB)

Comments:


Add report or comment (250 words maximum)

I'd like:  
Type text from captcha: