Our friends

Cliff Richard - The Young Ones [1961 PAL DVD][En Subs[SingAlong] torrent

Torrent info

Date 2011-12-16 16:47:20
Category Movies
Hash 6fd58c4831b2ea4ccc2c1e0dbc3b5ef7bdcf226c
Seeds / Leechs -1 / -1 refresh
Full size 3961 MB
Tracker http://tracker.thepiratebay.org/announce
Tags cliff richard young ones 1961 subs singalong

Related torrents

Cliff Richard - 50th Anniversary Album (2008) - Classical
Cliff Richard - Summer Nights Live [2004] Cardiff Castle
Cliff Richard Love Songs 1981 h33t flint
Cliff Richard - Stronger (re-seed)

Torrent's content info

VTS_01_1.VOB

Cliff Richard - The Young Ones [1961 PAL DVD][En Subs[SingAlong] screenshot
  • Screenshot 1
  • Screenshot 2
  • Screenshot 3
  • Screenshot 4
  • Screenshot 5
  • Screenshot 6
  • Screenshot 7
  • Screenshot 8
  • Screenshot 9

Duration: 00:27:09.76, start: 0.287267, bitrate: 5270 kb/s
Stream #0.0[0x1e0]: Video: mpeg2video, yuv420p, 720x576 [PAR 64:45 DAR 16:9], 8500 kb/s, 25 fps, 25 tbr, 90k tbn, 50 tbc
Stream #0.1[0x80]: Audio: ac3, 48000 Hz, stereo, s16, 192 kb/s
Stream #0.2[0x20]: Subtitle: dvdsub

Check the movie's sound/language:

Text sample Text sample from Cliff Richard - The Young Ones.txt

Read full text


Contents of download:

3961 megabyte in 15 files
Cliff Richard - The Young Ones [1961 PAL DVD][En Subs[SingAlong]
  • Cliff Richard - The Young Ones [1961 PAL DVD][En Subs[SingAlong]/FullDisc/OPTD0625/VIDEO_TS/VTS_01_2.VOB (1024 MB)
  • Cliff Richard - The Young Ones [1961 PAL DVD][En Subs[SingAlong]/FullDisc/OPTD0625/VIDEO_TS/VTS_01_3.VOB (1024 MB)
  • Cliff Richard - The Young Ones [1961 PAL DVD][En Subs[SingAlong]/FullDisc/OPTD0625/VIDEO_TS/VTS_01_1.VOB (1024 MB)
  • Cliff Richard - The Young Ones [1961 PAL DVD][En Subs[SingAlong]/FullDisc/OPTD0625/VIDEO_TS/VTS_01_4.VOB (813 MB)
  • Cliff Richard - The Young Ones [1961 PAL DVD][En Subs[SingAlong]/FullDisc/OPTD0625/VIDEO_TS/VTS_01_0.VOB (48 MB)
  • Cliff Richard - The Young Ones [1961 PAL DVD][En Subs[SingAlong]/FullDisc/OPTD0625/VIDEO_TS/VIDEO_TS.VOB (24 MB)
  • Cliff Richard - The Young Ones [1961 PAL DVD][En Subs[SingAlong]/Covers/The Young Ones-[inlay].jpg (2.2 MB)
  • Cliff Richard - The Young Ones [1961 PAL DVD][En Subs[SingAlong]/Covers/The Young Ones.JPG (1 MB)
  • Cliff Richard - The Young Ones [1961 PAL DVD][En Subs[SingAlong]/Covers/The Young Ones-[dvd].JPG (0.4 MB)
  • Cliff Richard - The Young Ones [1961 PAL DVD][En Subs[SingAlong]/FullDisc/OPTD0625/VIDEO_TS/VTS_01_0.BUP (88 KB)
  • Cliff Richard - The Young Ones [1961 PAL DVD][En Subs[SingAlong]/FullDisc/OPTD0625/VIDEO_TS/VTS_01_0.IFO (88 KB)
  • Cliff Richard - The Young Ones [1961 PAL DVD][En Subs[SingAlong]/Covers/tag_The Young Ones.jpg (84 KB)
  • Cliff Richard - The Young Ones [1961 PAL DVD][En Subs[SingAlong]/FullDisc/OPTD0625/VIDEO_TS/VIDEO_TS.IFO (12 KB)
  • Cliff Richard - The Young Ones [1961 PAL DVD][En Subs[SingAlong]/FullDisc/OPTD0625/VIDEO_TS/VIDEO_TS.BUP (12 KB)
  • Cliff Richard - The Young Ones [1961 PAL DVD][En Subs[SingAlong]/Cliff Richard - The Young Ones.txt (3.7 KB)

Comments:


Add report or comment (250 words maximum)

I'd like:  
Type text from captcha: