Our friends

Grimm S01E07 HDTV XviD-LOL torrent

Torrent info

Date 2011-12-17 11:47:08
Category Series/TV Shows
Hash fa27749864ab264c7ca48703654f5b507cc2026c
Seeds / Leechs -1 / -1 refresh
Full size 362 MB
Tracker http://tracker.thepiratebay.org/announce
Tags grimm s01e07 hdtv xvid
Download – Grimm S01E07 HDTV XviD-LOL Download direct – no client needed

Related torrents

New Amsterdam S01E07 HDTV XviD-NoTV [eztv]
Fringe.S01E07.HDTV.XviD-NoTV
Rita.Rocks.S01E07.HDTV.XviD-SYS.avi
Worst.Week.S01E07.HDTV.XviD-LOL.avi

Torrent's content info

Grimm.S01E07.HDTV.XviD-LOL.avi

Grimm S01E07 HDTV XviD-LOL screenshot
  • Screenshot 1
  • Screenshot 2
  • Screenshot 3
  • Screenshot 4
  • Screenshot 5
  • Screenshot 6
  • Screenshot 7
  • Screenshot 8
  • Screenshot 9

Duration: 00:42:54.36, start: 0.000000, bitrate: 1139 kb/s
Stream #0.0: Video: mpeg4, yuv420p, 624x352 [PAR 1:1 DAR 39:22], 23.98 tbr, 23.98 tbn, 23.98 tbc
Stream #0.1: Audio: mp3, 48000 Hz, 2 channels, s16, 128 kb/s

Check the movie's sound/language:

Text sample Text sample from www.Torrentday.com.txt

www.TorrentDay.com - is the Place you should be!!!!!!!!!!!!!!!!!

we are the most on-time tracker around the globe, You can download releases whenever they release out by group of uploaders.

no Wait Time, no Virus, Very Fast Download Speed.

Visit us at http://www.torrentday.com


Support Torrentday.com to grow faster :)


Thank you =)

http://www.Torrentday.com


www.TorrentDay.com
www.TorrentDay.com
www.TorrentDay.com
www.TorrentDay.com




Text sample Text sample from First Read This Guide.txt

www.TorrentDay.com - is the Place you should be!!!!!!!!!!!!!!!!!

we are the most on-time tracker around the globe, You can download releases whenever they release out by group of uploaders.

no Wait Time, no Virus, Very Fast Download Speed.

Visit us at http://www.torrentday.com


Support Torrentday.com to grow faster :)


Thank you =)

http://www.Torrentday.com


www.TorrentDay.com
www.TorrentDay.com
www.TorrentDay.com
www.TorrentDay.com




Text sample Text sample from grimm.107.hdtv-lol.nfo

Read full text


Contents of download:

362 megabyte in 5 files
Grimm S01E07 HDTV XviD-LOL
  • [ www.TorrentDay.com ] - Grimm.S01E07.HDTV.XviD-LOL/First Read This Guide.txt (0.5 KB)
  • [ www.TorrentDay.com ] - Grimm.S01E07.HDTV.XviD-LOL/grimm.107.hdtv-lol.nfo (4.5 KB)
  • [ www.TorrentDay.com ] - Grimm.S01E07.HDTV.XviD-LOL/Grimm.S01E07.HDTV.XviD-LOL.avi (350 MB)
  • [ www.TorrentDay.com ] - Grimm.S01E07.HDTV.XviD-LOL/Sample/grimm.107.hdtv-lol-sample.avi (13 MB)
  • [ www.TorrentDay.com ] - Grimm.S01E07.HDTV.XviD-LOL/www.Torrentday.com.txt (0.5 KB)

Comments:


Add report or comment (250 words maximum)

I'd like:  
Type text from captcha: