Our friends

Gold Rush Alaska S02E08 On the Gold HDTV XviD-MOMENTUM torrent

Torrent info

Date 2011-12-17 16:46:31
Category Series/TV Shows
Hash 8d8d35fe333abab333922af6ac594ab452c73f27
Seeds / Leechs 16 / 2 refresh
Full size 360 MB
Tracker http://tracker.thepiratebay.org/announce
Tags gold rush alaska s02e08 gold hdtv xvid momentum

Related torrents

Gold Rush Alaska S02E07 Gold At Last HDTV XviD-MOMENTUM
Gold Rush Alaska S02E08 On the Gold HDTV XviD-MOMENTUM
Gold Rush Alaska S03E09 REAL HDTV x264-KILLERS
[ www.Torrenting.com ] - Gold.Rush.Alaska.S03E15.720p.HDTV.x264-KILLERS

Fool's Gold (2008) overview

Director: Page, Matthew (I)

Description

The film "Fool’s Gold" - American adventure comedy directed by Andy Tennant. The plot of the film is simple: spouses Benjamin Finn (Matthew MakKonnehi) and Tess (Kate Hudson) are looking for the treasures of the Spanish crown, lost somewhere in the Bahamas with sunken galleons of Spanish king Philip the Fair in the 18th century. The search for 40 chests of diamonds and gold – is a nervous and insecure deal. What has done our married couple? Finn has loan 62 thousands of dollars from the local authority of the Big Bunny (an obvious parody of the rapper Paphos Daddy, played by Kevin Hart) and Tess - losing faith in her charismatic, confident in the success and the cheerful husband files for divorce and gets a steward on the yacht of millionaire Nigel (Donald Sutherland). Director Andy Tennant ("Rules of removal: method Hitch") gave a real gift to the whole viewers of the remote areas of the coasts. His picture - it's almost two hours of sunlight, sea, car chases, fights and adventures on the water in the sky and under the purest water near the luxurious Bahamas. This riot of colors and moods can easy replace unless two weeks of vacation or one visit to the vertical turbo solarium – with no doubts!

Torrent's content info

gold.rush.alaska.s02e08.hdtv.xvid-momentum.avi

Gold Rush Alaska S02E08 On the Gold HDTV XviD-MOMENTUM screenshot
  • Screenshot 1
  • Screenshot 2
  • Screenshot 3
  • Screenshot 4
  • Screenshot 5
  • Screenshot 6
  • Screenshot 7
  • Screenshot 8
  • Screenshot 9

Duration: 00:42:33.81, start: 0.000000, bitrate: 1149 kb/s
Stream #0.0: Video: mpeg4, yuv420p, 624x352 [PAR 1:1 DAR 39:22], 25 tbr, 25 tbn, 25 tbc
Stream #0.1: Audio: mp3, 48000 Hz, 2 channels, s16, 128 kb/s

Check the movie's sound/language:

Text sample Text sample from www.Torrentday.com.txt

www.TorrentDay.com - is the Place you should be!!!!!!!!!!!!!!!!!

we are the most on-time tracker around the globe, You can download releases whenever they release out by group of uploaders.

no Wait Time, no Virus, Very Fast Download Speed.

Visit us at http://www.torrentday.com


Support Torrentday.com to grow faster :)


Thank you =)

http://www.Torrentday.com


www.TorrentDay.com
www.TorrentDay.com
www.TorrentDay.com
www.TorrentDay.com




Text sample Text sample from First Read This Guide.txt

www.TorrentDay.com - is the Place you should be!!!!!!!!!!!!!!!!!

we are the most on-time tracker around the globe, You can download releases whenever they release out by group of uploaders.

no Wait Time, no Virus, Very Fast Download Speed.

Visit us at http://www.torrentday.com


Support Torrentday.com to grow faster :)


Thank you =)

http://www.Torrentday.com


www.TorrentDay.com
www.TorrentDay.com
www.TorrentDay.com
www.TorrentDay.com




Text sample Text sample from gold.rush.alaska.s02e08.hdtv.xvid-momentum.nfo

Gold.Rush.Alaska.S02E08.On.the.Gold.HDTV.XviD-MOMENTUM

Release Date.....: 2011-12-17
Filesize.........: 350.071MB
Runtime..........: 42m33s
Video............: 1016Kbps XviD
Audio............: 121Kbps MP3 2 channels
Frame Size.......: 624x352
Frame Rate.......: 25.000 fps





Contents of download:

360 megabyte in 5 files
Gold Rush Alaska S02E08 On the Gold HDTV XviD-MOMENTUM
  • [ www.TorrentDay.com ] - Gold.Rush.Alaska.S02E08.On.the.Gold.HDTV.XviD-MOMENTUM/First Read This Guide.txt (0.5 KB)
  • [ www.TorrentDay.com ] - Gold.Rush.Alaska.S02E08.On.the.Gold.HDTV.XviD-MOMENTUM/gold.rush.alaska.s02e08.hdtv.xvid-momentum.avi (350 MB)
  • [ www.TorrentDay.com ] - Gold.Rush.Alaska.S02E08.On.the.Gold.HDTV.XviD-MOMENTUM/gold.rush.alaska.s02e08.hdtv.xvid-momentum.nfo (0.3 KB)
  • [ www.TorrentDay.com ] - Gold.Rush.Alaska.S02E08.On.the.Gold.HDTV.XviD-MOMENTUM/Sample/sample-gold.rush.alaska.s02e08.hdtv.xvid-momentum.avi (10 MB)
  • [ www.TorrentDay.com ] - Gold.Rush.Alaska.S02E08.On.the.Gold.HDTV.XviD-MOMENTUM/www.Torrentday.com.txt (0.5 KB)

Comments:


Add report or comment (250 words maximum)

I'd like:  
Type text from captcha: