Our friends

X-Men 2011 S01E09 HDTV XviD-LMAO torrent

Torrent info

Date 2011-12-18 08:46:56
Category Series/TV Shows
Hash 3f543e5d38176e0a4d9f77f25dcf4b35f1bfaddb
Seeds / Leechs -1 / -1 refresh
Full size 175 MB
Tracker http://tracker.thepiratebay.org/announce
Tags 2011 s01e09 hdtv xvid lmao
Download – X-Men 2011 S01E09 HDTV XviD-LMAO Download direct – no client needed

Related torrents

The Car Show 2011 S01E09 HDTV XviD-CRiMSON
X-Men 2011 S01E04 HDTV XviD-LMAO[ettv]
X-Men 2011 S01E07 HDTV XviD-LMAO[ettv]
X-Men 2011 S01E12 HDTV XviD-LMAO[ettv]

Torrent's content info

X-Men.2011.S01E09.HDTV.XviD-LMAO.avi

X-Men 2011 S01E09 HDTV XviD-LMAO screenshot
  • Screenshot 1
  • Screenshot 2
  • Screenshot 3
  • Screenshot 4
  • Screenshot 5
  • Screenshot 6
  • Screenshot 7
  • Screenshot 8
  • Screenshot 9

Duration: 00:20:59.30, start: 0.000000, bitrate: 1164 kb/s
Stream #0.0: Video: mpeg4, yuv420p, 624x352 [PAR 1:1 DAR 39:22], 23.98 tbr, 23.98 tbn, 23.98 tbc
Stream #0.1: Audio: mp3, 48000 Hz, 2 channels, s16, 96 kb/s

Check the movie's sound/language:

Contents of download:

175 megabyte in 1 files
X-Men 2011 S01E09 HDTV XviD-LMAO
  • X-Men.2011.S01E09.HDTV.XviD-LMAO.avi (175 MB)

Comments:


Add report or comment (250 words maximum)

I'd like:  
Type text from captcha: