Our friends

The Sound of Music (1965) XviD (moviesbyrizzo) MULTI audio torrent

Torrent info

Date 2011-12-19 20:47:35
Category Movies
Hash 5867429d557543b3b7598e62d628f2880c9ab993
Seeds / Leechs -1 / -1 refresh
Full size 2616 MB
Tracker http://tracker.thepiratebay.org/announce
Tags sound music 1965 xvid moviesbyrizzo multi audio

Related torrents

Architecture.02of23.The.Siza.School.Xvid.AC3.Multi.Audio.en.de.fr.www.mvgroup.org.avi.torrent
Architecture.06of23.The.Vienna.Savings.Bank.Xvid.AC3.Multi.Audio.en.de.fr.www.mvgroup.org.avi.torren
Architecture 14of23 Le Corbusier - The Cloister La Tourette Xvid AC3 Multi Audio en de fr www mvgro
Architecture 13of23 Charles Garnier - The Opera Garnier Xvid AC3 Multi Audio en de fr www mvgroup or

Torrent's content info

The Sound of music standard Xvid MULTI language (moviesbyrizzo).avi

The Sound of Music (1965)  XviD  (moviesbyrizzo) MULTI audio screenshot
  • Screenshot 1
  • Screenshot 2
  • Screenshot 3
  • Screenshot 4
  • Screenshot 5
  • Screenshot 6
  • Screenshot 7
  • Screenshot 8
  • Screenshot 9

Duration: 02:54:41.28, start: 0.000000, bitrate: 2078 kb/s
Stream #0.0: Video: mpeg4, yuv420p, 720x404 [PAR 1:1 DAR 180:101], 25 tbr, 25 tbn, 25 tbc
Stream #0.1: Audio: mp3, 44100 Hz, 2 channels, s16, 256 kb/s
Stream #0.2: Audio: mp3, 48000 Hz, 2 channels, s16, 128 kb/s
--
strn : german
Stream #0.3: Audio: mp3, 48000 Hz, 2 channels, s16, 128 kb/s
--
strn : italian
Stream #0.4: Audio: mp3, 48000 Hz, 2 channels, s16, 128 kb/s
--
strn : spanish
Stream #0.5: Audio: mp3, 48000 Hz, 2 channels, s16, 128 kb/s

Check the movie's sound/language:

20 seconds audio samples

The Sound of Music (Broadway) - Mary Martin & Patricia Neway - My Favorite Things_sample.mp3
Audio file info Duration: 00:02:55.00, start: 0.000000, bitrate: 320 kb/s
Stream #0.0: Audio: mp3, 44100 Hz, 2 channels, s16, 320 kb/s
The Sound of Music (Broadway) - Michael Kraus,Sandra Pires,Chorus - Edelweiss (German Version)_sample.mp3
Audio file info Duration: 00:02:31.16, start: 0.000000, bitrate: 320 kb/s
Stream #0.0: Audio: mp3, 44100 Hz, 2 channels, s16, 320 kb/s
The Sound of Music (Broadway) - Mary Martin - The Sound of Music_sample.mp3
Audio file info Duration: 00:02:47.51, start: 0.000000, bitrate: 320 kb/s
Stream #0.0: Audio: mp3, 44100 Hz, 2 channels, s16, 320 kb/s

Contents of download:

2616 megabyte in 9 files
The Sound of Music (1965) XviD (moviesbyrizzo) MULTI audio
  • The Sound of music standard Xvid MULTI language (moviesbyrizzo)/The Sound of music standard Xvid MULTI language (moviesbyrizzo).avi (2596 MB)
  • The Sound of music standard Xvid MULTI language (moviesbyrizzo)/Broadway version song selections/The Sound of Music (Broadway) - Mary Martin & Patricia Neway - My Favorite Things.mp3 (6.7 MB)
  • The Sound of music standard Xvid MULTI language (moviesbyrizzo)/Broadway version song selections/The Sound of Music (Broadway) - Mary Martin - The Sound of Music.mp3 (6.4 MB)
  • The Sound of music standard Xvid MULTI language (moviesbyrizzo)/Broadway version song selections/The Sound of Music (Broadway) - Michael Kraus,Sandra Pires,Chorus - Edelweiss (German Version).mp3 (5.8 MB)
  • The Sound of music standard Xvid MULTI language (moviesbyrizzo)/The Sound of music Xvid multi lang from 1080p (moviesbyrizzo).jpg (0.2 MB)
  • The Sound of music standard Xvid MULTI language (moviesbyrizzo)/Close captioned subtitles - English/The Sound of music 2GB Xvid MULTI language (moviesbyrizzo).srt (0.2 MB)
  • The Sound of music standard Xvid MULTI language (moviesbyrizzo)/autographed picture.jpg (0.1 MB)
  • The Sound of music standard Xvid MULTI language (moviesbyrizzo)/Broadway version song selections/The Sound of Music (Broadway -1959) (musicfromrizzo).jpg (0.1 MB)
  • The Sound of music standard Xvid MULTI language (moviesbyrizzo)/The Sound of music (moviesbyrizzo).jpg (47.8 KB)

Comments:


Add report or comment (250 words maximum)

I'd like:  
Type text from captcha: