Our friends

Jannat 2 ( 2012 ) Full album Song.mp3 (4 song ) torrent

Torrent info

Date 2011-12-25 12:49:07
Category Music
Hash a23cc0d75d808fdcc6771570785b38c9dd20a730
Seeds / Leechs -1 / -1 refresh
Full size 16 MB
Tracker http://cpleft.com:2710/scrape
Tags jannat 2012 full album song song

Related torrents

Jaaniyan - Ek Tha Tiger ( 2012 ) Full Song.mp3 { 128kbps} { Exclusive }~`{ janmejaya12345 } torrent
Chikni Chameli - Agneepath (2012) Full Song.mp3 { 320kbps} { Exclusive }~`{ janmejaya12345 }
Kasam - Jannat 2 (2012) Full Song.mp3 { 128kbps} { Exclusive }~`{ janmejaya12345 }
Mujhe Pyaar - Jannat 2 (2012) Full Song.mp3 (128kbps ) ^[ Exclusive ] ~`{ janmejaya12345 }

Torrent's content info

20 seconds audio samples

Kasam - { Jannat 2 } (2012)_sample.mp3
Audio file info Duration: 00:04:49.89, start: 0.000000, bitrate: 128 kb/s
Stream #0.0: Audio: mp3, 44100 Hz, 2 channels, s16, 128 kb/s
Judai_sample.mp3
Audio file info Duration: 00:03:16.46, start: 0.000000, bitrate: 128 kb/s
Stream #0.0: Audio: mp3, 44100 Hz, 2 channels, s16, 128 kb/s
Mujhe Pyaar - Jannat 2 (2012)_sample.mp3
Audio file info Duration: 00:04:40.92, start: 0.000000, bitrate: 127 kb/s
Stream #0.0: Audio: mp3, 44100 Hz, 2 channels, s16, 128 kb/s
Woh_Ajnabi_sample.mp3
Audio file info Duration: 00:05:08.66, start: 0.000000, bitrate: 128 kb/s
Stream #0.0: Audio: mp3, 44100 Hz, 2 channels, s16, 128 kb/s

Contents of download:

16 megabyte in 4 files
Jannat 2 ( 2012 ) Full album Song.mp3 (4 song )
  • Jannat 2 ( 2012 )/Judai.mp3 (3 MB)
  • Jannat 2 ( 2012 )/Kasam - { Jannat 2 } (2012).mp3 (4.4 MB)
  • Jannat 2 ( 2012 )/Mujhe Pyaar - Jannat 2 (2012).mp3 (4.3 MB)
  • Jannat 2 ( 2012 )/Woh_Ajnabi.mp3 (4.7 MB)

Comments:


Add report or comment (250 words maximum)

I'd like:  
Type text from captcha: