Our friends

Lydia Loveless-Indestructible Machine(MP3320)19glide58[H33T] torrent

Torrent info

Date 2011-12-26 00:50:17
Category Music
Hash c1a7a843c50ab70e3a62ff1f0141599e770d559a
Seeds / Leechs -1 / -1 refresh
Full size 88 MB
Tracker http://tracker.novalayer.org:6969/scrape
Tags lydia loveless indestructible machine mp3320 19glide58 h33t

Related torrents

Junior Kimbrough-God Knows I Tried(MP3320)19glide58[H33T]
Levon Helm-Ramble At The Ryman(MP3320)19glide58[H33T]
Rory Gallagher-Notes From San Francisco(MP3320)19glide58[H33T]
VA-Heartworn Highways Soundtrack(MP3320)19glide58[H33T]

Torrent's content info

20 seconds audio samples

04 - How Many Women_sample.mp3
Audio file info Duration: 00:03:44.05, start: 0.000000, bitrate: 321 kb/s
Stream #0.0: Audio: mp3, 44100 Hz, 2 channels, s16, 320 kb/s
02 - Can't Change Me_sample.mp3
Audio file info Duration: 00:04:14.04, start: 0.000000, bitrate: 320 kb/s
Stream #0.0: Audio: mp3, 44100 Hz, 2 channels, s16, 320 kb/s
08 - Do Right_sample.mp3
Audio file info Duration: 00:03:51.05, start: 0.000000, bitrate: 321 kb/s
Stream #0.0: Audio: mp3, 44100 Hz, 2 channels, s16, 320 kb/s
07 - Learn To Say No_sample.mp3
Audio file info Duration: 00:04:14.04, start: 0.000000, bitrate: 320 kb/s
Stream #0.0: Audio: mp3, 44100 Hz, 2 channels, s16, 320 kb/s

Text sample Text sample from tracked_by_h33t_com.txt

http://fr33dom.h33t.com:3310/announce

For More quality torrents visit at www.h33t.com




Text sample Text sample from info.txt

Artist: Lydia Loveless
Title: Indestructible Machine
Label: Bloodshot
Release Date: 2011
Format: MP3 @ 320 K

Review:
If you're someone who seeks out the place where punk rock, country music, crafted songwriting, and raw, immediate, visceral garagey rock & roll meet, look no further than Indestructible Machine, the Bloodshot debut of Lydia Loveless. The 21-year-old Ohioan is the product of a rock & roll drummer daddy (who plays in her band), a Loretta Lynn-worshiping momma, and a boyfriend who hipped her to country music's outlaws and the latter-day XXX-brand country of Hank III, Shooter Jennings, etc. Indestructible Machine reflects all this, but Loveless is more than the sum of her influences: her writing and singing talents are in their own class. She has a big throaty voice that recalls Neko Case's at first blush, but Loveless' is bigger, richer, more expressive -- her singing owes more to singers Lynn and Jeannie C. Riley. She's backed by a bona fide careening country sextet with lead guitarist...

Read full text


Contents of download:

88 megabyte in 12 files
Lydia Loveless-Indestructible Machine(MP3320)19glide58[H33T]
  • Lydia Loveless-Indestructible Machine(MP3@320){19glide58}[H33T]/09 - Crazy.mp3 (13 MB)
  • Lydia Loveless-Indestructible Machine(MP3@320){19glide58}[H33T]/03 - More Like Them.mp3 (12 MB)
  • Lydia Loveless-Indestructible Machine(MP3@320){19glide58}[H33T]/06 - Steve Earle.mp3 (10 MB)
  • Lydia Loveless-Indestructible Machine(MP3@320){19glide58}[H33T]/02 - Can't Change Me.mp3 (10 MB)
  • Lydia Loveless-Indestructible Machine(MP3@320){19glide58}[H33T]/07 - Learn To Say No.mp3 (10 MB)
  • Lydia Loveless-Indestructible Machine(MP3@320){19glide58}[H33T]/08 - Do Right.mp3 (8.8 MB)
  • Lydia Loveless-Indestructible Machine(MP3@320){19glide58}[H33T]/04 - How Many Women.mp3 (8.6 MB)
  • Lydia Loveless-Indestructible Machine(MP3@320){19glide58}[H33T]/05 - Jesus Was A Wino.mp3 (8.3 MB)
  • Lydia Loveless-Indestructible Machine(MP3@320){19glide58}[H33T]/01 - Bad Way To Go.mp3 (6.8 MB)
  • Lydia Loveless-Indestructible Machine(MP3@320){19glide58}[H33T]/front.jpg (86 KB)
  • Lydia Loveless-Indestructible Machine(MP3@320){19glide58}[H33T]/info.txt (2.8 KB)
  • Lydia Loveless-Indestructible Machine(MP3@320){19glide58}[H33T]/tracked_by_h33t_com.txt (0.1 KB)

Comments:


Add report or comment (250 words maximum)

I'd like:  
Type text from captcha: