Our friends

Rurouni Kenshin - Requiem For The Restoration Patriots [BD 720p - Dual Audio AAC].mkv torrent

Torrent info

Date 2011-12-26 12:54:07
Category Anime
Hash b3fa55670038442f3f3011e367fd0b3d38da7822
Seeds / Leechs -1 / -1 refresh
Full size 1410 MB
Tracker http://ratio.nyaatorrents.info:7266/00000000000000000000000000000000/scrape
Tags rurouni kenshin requiem restoration patriots 720p dual audio

Related torrents

Cats And Dogs Duology 720p[Dual-Audio]{Eng-Hindi]~BONIIN
Doomsday 720p Dual Audio{English-Hindi}BRRip aaaevilacharya
Stealth 720p Dual Audio{English-Hindi}BRRip aaaevilacharya
Se7en 720p Dual Audio{English-Hindi}BRRip aaaevilacharya

Rurouni Kenshin (2000) overview

Description

Japan, the second half of XIX century. Just ended civil war in which emperor party has won supporters of shogun. Gradually begin to reform of the country on European style. Himura Kenshin is a young warrior, nicknamed The Executioner Battosay faithfully served the emperor. But he was tired of killing, and he left government service. Now he wears a sword sharpened on the back of the blade (sakabato) and lives in school Kamiya Kaoru, a girl, a teacher of martial arts. But the shadow of the last war did not leave him alone... And what do we see? We see that as a fighter, a survivor of a terrible war came out of it with strong pacifist convictions. He vowed not to kill. As a person who possesses incredible power, he takes responsibility for the lives of people around him, it does not matter - friends or foes. Yes, it does not kill enemies in battle (no longer kills), and even his sword sakabato not locked up with the attacking side.

Torrent's content info

[Doutei] Rurouni Kenshin - Requiem For The Restoration Patriots [BD 720p - Dual AAC][6d69b500].mkv

Rurouni Kenshin - Requiem For The Restoration Patriots [BD 720p - Dual Audio AAC].mkv screenshot
  • Screenshot 1
  • Screenshot 2
  • Screenshot 3
  • Screenshot 4
  • Screenshot 5
  • Screenshot 6
  • Screenshot 7
  • Screenshot 8
  • Screenshot 9

title : ED
Stream #0.0(jpn): Video: h264, yuv420p, 1280x720 [PAR 1:1 DAR 16:9], 23.98 fps, 23.98 tbr, 1k tbn, 47.95 tbc
--
title : Rurouni Kenshin Movie
Stream #0.1(jpn): Audio: aac, 48000 Hz, 5.1, s16
--
title : Japanese 5.1 AAC
Stream #0.2(eng): Audio: aac, 48000 Hz, stereo, s16
--
title : English 2.0 AAC
Stream #0.3(eng): Subtitle: 0x0000
--
title : Main Track
Stream #0.4: Attachment: 0x0000
--
filename : epgyobld.ttf
Stream #0.5: Attachment: 0x0000
--
filename : FRSCRIPT.TTF
Stream #0.6: Attachment: 0x0000
--
filename : HIGHMIM.TTF
Stream #0.7: Attachment: 0x0000
--
filename : Marker_SD_Italic.ttf
Stream #0.8: Attachment: 0x0000
--
filename : meiryob.ttc
Stream #0.9: Attachment: 0x0000

Contents of download:

1410 megabyte in 1 files
Rurouni Kenshin - Requiem For The Restoration Patriots [BD 720p - Dual Audio AAC].mkv
  • [Doutei] Rurouni Kenshin - Requiem For The Restoration Patriots [BD 720p - Dual AAC][6d69b500].mkv (1410 MB)

Comments:


Add report or comment (250 words maximum)

I'd like:  
Type text from captcha: