Our friends

Devilman 1972 TV BGM (**Go Nagai Anime**) torrent

Torrent info

Date 2011-12-28 12:46:24
Category Music
Hash 0dd890f1beb2bf8c77a1efbe0a325e73506ef78a
Seeds / Leechs -1 / -1 refresh
Full size 53 MB
Tracker http://tracker.openbittorrent.com/scrape
Tags devilman 1972 nagai anime
Download – Devilman 1972 TV BGM (**Go Nagai Anime**) Download direct – no client needed

Related torrents

Podtoid-san 55 - The weekly Japanator.com anime podcast
Podtoid-san 58- The weekly Japanator.com anime podcast
Ita Anime DivX DevilMan OAV1 La Genesi avi
[Anime Divx-Ita] Devilman Oav 2 - L'arpia Silen [TntVillage]

Torrent's content info

20 seconds audio samples

04 悪魔一族(デーモン)_sample.mp3
Audio file info Duration: 00:04:03.44, start: 0.000000, bitrate: 128 kb/s
Stream #0.0: Audio: mp3, 44100 Hz, 2 channels, s16, 128 kb/s
10 悲しき戦場_sample.mp3
Audio file info Duration: 00:05:04.01, start: 0.000000, bitrate: 128 kb/s
Stream #0.0: Audio: mp3, 44100 Hz, 2 channels, s16, 128 kb/s
08 地獄からの使者_sample.mp3
Audio file info Duration: 00:05:13.16, start: 0.000000, bitrate: 127 kb/s
Stream #0.0: Audio: mp3, 44100 Hz, 2 channels, s16, 128 kb/s
11 愛する者のために_sample.mp3
Audio file info Duration: 00:05:30.02, start: 0.000000, bitrate: 128 kb/s
Stream #0.0: Audio: mp3, 44100 Hz, 2 channels, s16, 128 kb/s

Contents of download:

53 megabyte in 19 files
Devilman 1972 TV BGM (**Go Nagai Anime**)
  • デビルマン/01 悪魔復活.mp3 (3.5 MB)
  • デビルマン/02 悪魔人間(デビルマン)-不動明.mp3 (4.9 MB)
  • デビルマン/03 裏切り者-美樹への愛.mp3 (3.8 MB)
  • デビルマン/04 悪魔一族(デーモン).mp3 (3.7 MB)
  • デビルマン/05 破壊-限りなき闘争本能.mp3 (4.3 MB)
  • デビルマン/06 果てしなき死闘の始まり.mp3 (3 MB)
  • デビルマン/07 人間界-ドタバタ.mp3 (4.4 MB)
  • デビルマン/08 地獄からの使者.mp3 (4.8 MB)
  • デビルマン/09 最終戦争(アーマゲドン).mp3 (4.2 MB)
  • デビルマン/10 悲しき戦場.mp3 (4.6 MB)
  • デビルマン/11 愛する者のために.mp3 (5 MB)
  • デビルマン/12 デビルマンのうた.mp3 (2.7 MB)
  • デビルマン/13 今日もどこかでデビルマン.mp3 (2.6 MB)
  • デビルマン/scan0001.jpg (28.3 KB)
  • デビルマン/scan0001b.JPG (45.7 KB)
  • デビルマン/scan0002.jpg (32.6 KB)
  • デビルマン/scan0003.jpg (0.5 MB)
  • デビルマン/scan0006.jpg (0.7 MB)
  • デビルマン/scan0016.jpg (0.5 MB)

Comments:


Add report or comment (250 words maximum)

I'd like:  
Type text from captcha: