Our friends

Higher Ground 2011 LIMITED BDRip XviD-SPARKS torrent

Torrent info

Date 2011-12-30 06:46:49
Category Movies
Hash 9bd32a66092dd17b0e7cb583e4062fd5412f7b24
Seeds / Leechs 3 / 3 refresh
Full size 1408 MB
Tracker http://tracker.thepiratebay.org/announce
Tags higher ground 2011 limited bdrip xvid sparks
Download – Higher Ground 2011 LIMITED BDRip XviD-SPARKS Download direct – no client needed

Related torrents

Higher Ground 2011 LIMITED BDRip XviD-SPARKS
This Must Be The Place 2011 LIMITED BDRip XviD-SPARKS
Edwin Boyd 2011 LiMiTED BDRip XviD-SPARKS
The Good Doctor 2011 LIMITED BDRip XviD-SPARKS

Higher Ground (2011) overview

Genre: drama Director: Farmiga, Vera

Description

The main heroine of the picture "Higher Ground”, Caroline Briggs (Vera Farmiga), was born in 1960 and grew up in a poor family. When she was 17, she became pregnant a few months later and married. Without any special plans her life continued further, until she found Jesus. It started with innocent familiarity of rare moments when Caroline lingered in front of TV, listening to the preacher. But soon a cursory look at Bible was replaced by a deep faith, the heroine of the movie "Higher Ground" has turned into a woman, devoted herself to religion. All imbued with divine meaning, she spent hours in prayer, kneeling and studying Bible. And only then, when her marriage began to crumble, Caroline forced herself to look from the other side on her entire adult life, venturing to question religious dogma.

Torrent's content info

sparks-hg2011a.avi

Higher Ground 2011 LIMITED BDRip XviD-SPARKS screenshot
  • Screenshot 1
  • Screenshot 2
  • Screenshot 3
  • Screenshot 4
  • Screenshot 5
  • Screenshot 6
  • Screenshot 7
  • Screenshot 8
  • Screenshot 9

Duration: 00:48:17.02, start: 0.000000, bitrate: 2022 kb/s
Stream #0.0: Video: mpeg4, yuv420p, 640x352 [PAR 1:1 DAR 20:11], 23.98 tbr, 23.98 tbn, 23.98 tbc
Stream #0.1: Audio: ac3, 48000 Hz, 5.1, s16, 448 kb/s

Check the movie's sound/language:

Text sample Text sample from READ this before playing the Movie.txt

www.Torrenting.com - a special Tracker only for Movies.

we are the most on-time tracker around the globe, You can download releases whenever they release out by group uploaders.

no Wait Time, no Virus, Very Fast Download Speed.

Find us at http://www.torrenting.com

Support Torrenting.com to grow faster :)

Thank you =)

Join The Legends at: http://www.Torrenting.com

www.Torrenting.com
www.Torrenting.com
www.Torrenting.com
www.Torrenting.com




Text sample Text sample from www.Torrenting.com.txt

www.Torrenting.com - a special Tracker only for Movies.

we are the most on-time tracker around the globe, You can download releases whenever they release out by group uploaders.

no Wait Time, no Virus, Very Fast Download Speed.

Find us at http://www.torrenting.com

Support Torrenting.com to grow faster :)

Thank you =)

Join The Legends at: http://www.Torrenting.com

www.Torrenting.com
www.Torrenting.com
www.Torrenting.com
www.Torrenting.com




Text sample Text sample from sparks-hg2011.nfo


( ( ( ) (
)\ ) )\ ) ( )\ ) ( /( )\ )
(()/((()/( )\ (()/( )\())(()/(
/(_))/(_))((((_)( /(_))|((_)\ /(_))
(_)) (_)) )\ _ )\ (_)) |_ ((_)(_))
/ __|| _ \ (_)_\(_)| _ \ | |/ / / __|
\__ \| _/ / _ \ | / ' < \__ \
|___/|_| /_/ \_\ |_|_\ _|\_\ |___/

presents...

Higher.Ground.2011.LIMITED.BDRip.XviD-SPARKS

Release.Date: 29.12.2011
Source......: Retail Bluray
Size........: 2cd (698MB+697MB)
Video.......: XVID
Frame.Rate..: 23.976
Resoltuion..: 640x352
Audio.......: AC3 448Kbps 6ch
Length......: 1h 52m
Language....: English
Subtitles...: English

IMDB: http://www.imdb.com/title/tt1562568/





Contents of download:

1408 megabyte in 8 files
Higher Ground 2011 LIMITED BDRip XviD-SPARKS
  • [ www.Torrenting.com ] - Higher.Ground.2011.LIMITED.BDRip.XviD-SPARKS/CD1/sparks-hg2011a.avi (699 MB)
  • [ www.Torrenting.com ] - Higher.Ground.2011.LIMITED.BDRip.XviD-SPARKS/CD2/sparks-hg2011b.avi (697 MB)
  • [ www.Torrenting.com ] - Higher.Ground.2011.LIMITED.BDRip.XviD-SPARKS/READ this before playing the Movie.txt (0.5 KB)
  • [ www.Torrenting.com ] - Higher.Ground.2011.LIMITED.BDRip.XviD-SPARKS/Sample/sparks-hg2011-sample.avi (12 MB)
  • [ www.Torrenting.com ] - Higher.Ground.2011.LIMITED.BDRip.XviD-SPARKS/sparks-hg2011.nfo (0.6 KB)
  • [ www.Torrenting.com ] - Higher.Ground.2011.LIMITED.BDRip.XviD-SPARKS/Subs/sparks-hg2011a.idx (38 KB)
  • [ www.Torrenting.com ] - Higher.Ground.2011.LIMITED.BDRip.XviD-SPARKS/Subs/sparks-hg2011b.idx (46.8 KB)
  • [ www.Torrenting.com ] - Higher.Ground.2011.LIMITED.BDRip.XviD-SPARKS/www.Torrenting.com.txt (0.5 KB)

Comments:


Add report or comment (250 words maximum)

I'd like:  
Type text from captcha: