Our friends

Carl perkins.born to rock.1989 torrent

Torrent info

Date 2012-01-02 00:46:00
Category Music
Hash 0646bc331c1cae8b86157ccd0d4a6fa96e40ac66
Seeds / Leechs -1 / -1 refresh
Full size 88 MB
Tracker http://tracker.openbittorrent.com/scrape
Tags carl perkins born rock 1989
Download – Carl perkins.born to rock.1989 Download direct – no client needed

Related torrents

Oscar Moore Quartet with Carl Perkins (1954) RELOADED [SmoothJaz [113/75]
Oscar Moore Quartet with Carl Perkins (1954) RE-RELOADED [SmoothJazz][mp3 320][h33t][schon55]
Carl Perkins - Old blue suede shoes is back
Carl Perkins & Gene Vincent - Original [Remastered]

Torrent's content info

20 seconds audio samples

3.The rain might wash you love awawy_sample.mp3
Audio file info Duration: 00:04:38.18, start: 0.000000, bitrate: 320 kb/s
Stream #0.0: Audio: mp3, 44100 Hz, 2 channels, s16, 320 kb/s
10.Love makes dreams come true_sample.mp3
Audio file info Duration: 00:04:18.26, start: 0.000000, bitrate: 320 kb/s
Stream #0.0: Audio: mp3, 44100 Hz, 2 channels, s16, 320 kb/s
2.Charlene_sample.mp3
Audio file info Duration: 00:04:11.16, start: 0.000000, bitrate: 320 kb/s
Stream #0.0: Audio: mp3, 44100 Hz, 2 channels, s16, 320 kb/s
4.Hambone_sample.mp3
Audio file info Duration: 00:03:31.91, start: 0.000000, bitrate: 320 kb/s
Stream #0.0: Audio: mp3, 44100 Hz, 2 channels, s16, 320 kb/s

Contents of download:

88 megabyte in 13 files
Carl perkins.born to rock.1989
  • Carl perkins.born to rock.1989/1. Born to rock.mp3 (8.6 MB)
  • Carl perkins.born to rock.1989/10.Love makes dreams come true.mp3 (10 MB)
  • Carl perkins.born to rock.1989/2.Charlene.mp3 (10 MB)
  • Carl perkins.born to rock.1989/3.The rain might wash you love awawy.mp3 (11 MB)
  • Carl perkins.born to rock.1989/4.Hambone.mp3 (8.1 MB)
  • Carl perkins.born to rock.1989/5.A lifetime last night.mp3 (8.5 MB)
  • Carl perkins.born to rock.1989/6.Cotton top.mp3 (7.4 MB)
  • Carl perkins.born to rock.1989/7.Baby, please answer the phone.mp3 (7.7 MB)
  • Carl perkins.born to rock.1989/8.Til i couldn`t stand no more.mp3 (10 MB)
  • Carl perkins.born to rock.1989/9.Don`t let go.mp3 (7.8 MB)
  • Carl perkins.born to rock.1989/[AllCDCovers]_carl_perkins_born_to_rock_1990_retail_cd-back.jpg (79.4 KB)
  • Carl perkins.born to rock.1989/[AllCDCovers]_carl_perkins_born_to_rock_1990_retail_cd-front.jpg (50 KB)
  • Carl perkins.born to rock.1989/readme[1].jpg (0.2 MB)

Comments:


Add report or comment (250 words maximum)

I'd like:  
Type text from captcha: