Our friends

01-03-2012 Days of our Lives avi torrent

Torrent info

Date 2012-01-05 06:47:16
Category Series/TV Shows
Hash 959c001a2772a36b6dc84c4be192bf6fa38a2074
Seeds / Leechs -1 / -1 refresh
Full size 164 MB
Tracker http://tracker.thepiratebay.org/announce
Tags 2012 days lives
Download – 01-03-2012 Days of our Lives avi Download direct – no client needed

Related torrents

Thursday 01-26-2012 Days of our Lives avi
Thursday 02-02-2012 Days of our Lives avi
Tuesday 07-02-2012 Days of our Lives avi
Friday 10-02-2012 Days of our Lives avi

Torrent's content info

01-03-2012 Days of our Lives.avi

01-03-2012 Days of our Lives avi screenshot
  • Screenshot 1
  • Screenshot 2
  • Screenshot 3
  • Screenshot 4
  • Screenshot 5
  • Screenshot 6
  • Screenshot 7
  • Screenshot 8
  • Screenshot 9

Duration: 00:38:39.49, start: 0.000000, bitrate: 592 kb/s
Stream #0.0: Video: mpeg4, yuv420p, 720x400 [PAR 1:1 DAR 9:5], 30 tbr, 30 tbn, 30 tbc
Stream #0.1: Audio: mp3, 44100 Hz, 2 channels, s16, 32 kb/s

Check the movie's sound/language:

Contents of download:

164 megabyte in 1 files
01-03-2012 Days of our Lives avi
  • 01-03-2012 Days of our Lives.avi (164 MB)

Comments:


Add report or comment (250 words maximum)

I'd like:  
Type text from captcha: