Our friends

Modern Family S03E12 HDTV XviD-LOL [eztv] torrent

Torrent info

Date 2012-01-12 10:45:58
Category Series/TV Shows
Hash ce45c4c0326eeae852ef5a6707e6c2901152ab63
Seeds / Leechs -1 / -1 refresh
Full size 175 MB
Tracker http://tracker.thepiratebay.org/announce
Tags modern family s03e12 hdtv xvid eztv
Download – Modern Family S03E12 HDTV XviD-LOL [eztv] Download direct – no client needed

Related torrents

Modern Family S01E22 HDTV XviD-LOL [eztv]
Modern Family S01E16 HDTV XviD-P0W4 [eztv]
Modern Family S02E07 HDTV XviD-LOL [eztv]
Modern Family S02E20 HDTV XviD-LOL [eztv]

Modern Family (2009) overview

Description

Jay Pritchett met the stunning Colombian Gloria, when she served him in a bikini cocktails party, which he gave on the day of departure of his first wife. Now Jay and Gloria are married, and Jay is struggling to keep up with the young beauty-wife and her son, Mani. In the family of Clare Dunphy, everything is not so smoothly too. Her husband, Phil - just wonderful, but he believes that he is the best friend for the children, when highly embarrassing them. A son of Jay Mitchell and his partner Cameron have just adopted Lily, a charming baby from Vietnam. Each family and each member is unique, original and funny and cute in its own way. Homophobes may not like the corresponding family. Just two guy on the contrast of traditional families. Yet this is a modern family! Each episode is almost self-sufficient, so you shouldn’t worry if you missed some episodes. And the duration in 20 minutes removes producers of unnecessary things in the show, designed only to add timing. All is clear, deep and interesting. The main thing in «Modern Family» is not a veiled plot, and to amuse the audience. In addition, each series carries some moral.

Torrent's content info

Modern.Family.S03E12.HDTV.XviD-LOL.avi

Modern Family S03E12 HDTV XviD-LOL [eztv] screenshot
  • Screenshot 1
  • Screenshot 2
  • Screenshot 3
  • Screenshot 4
  • Screenshot 5
  • Screenshot 6
  • Screenshot 7
  • Screenshot 8
  • Screenshot 9

Duration: 00:21:37.51, start: 0.000000, bitrate: 1131 kb/s
Stream #0.0: Video: mpeg4, yuv420p, 624x352 [PAR 1:1 DAR 39:22], 23.98 tbr, 23.98 tbn, 23.98 tbc
Stream #0.1: Audio: mp3, 48000 Hz, 2 channels, s16, 128 kb/s

Check the movie's sound/language:

Contents of download:

175 megabyte in 1 files
Modern Family S03E12 HDTV XviD-LOL [eztv]
  • Modern.Family.S03E12.HDTV.XviD-LOL.avi (175 MB)

Comments:


Add report or comment (250 words maximum)

I'd like:  
Type text from captcha: