Our friends

Ishqiya Hindi Movie MP3 (Nicely Tagged) torrent

Torrent info

Date 2012-01-12 12:47:17
Category Music
Hash 7b652031e5c39ca098b216ca02c1159bb5998fbd
Seeds / Leechs -1 / -1 refresh
Full size 60 MB
Tracker http://www.torrentsnipe.info:2701/scrape
Tags ishqiya hindi movie nicely tagged
Download – Ishqiya Hindi Movie MP3 (Nicely Tagged) Download direct – no client needed

Related torrents

Pyaar Kiya To Darna Kya HINDI MOVIE CU SALMAN KHAN
Aladin 2009 (320 - KBPS - MP3) Ringtones - XRG ( HINDI MOVIE RINGTONES )
xDe.DaNa.DaNx.Hindi.Movie.Songs.Mp3.2009.By.GoLD
vishal bhardwaj - Ishqiya HINDI 2010-MP3-VBR-320Kbps

Torrent's content info

20 seconds audio samples

02 Ibn-E-Batuta_sample.mp3
Audio file info Duration: 00:03:39.35, start: 0.000000, bitrate: 254 kb/s
Stream #0.0: Audio: mp3, 44100 Hz, 2 channels, s16, 32 kb/s
05 Dil To Bachacha Hai (Remix)_sample.mp3
Audio file info Duration: 00:04:01.13, start: 0.000000, bitrate: 264 kb/s
Stream #0.0: Audio: mp3, 44100 Hz, 2 channels, s16, 32 kb/s
03 Ab Mujhe Koi_sample.mp3
Audio file info Duration: 00:05:42.62, start: 0.000000, bitrate: 223 kb/s
Stream #0.0: Audio: mp3, 44100 Hz, 2 channels, s16, 32 kb/s
01 Dil To Bachacha Hai_sample.mp3
Audio file info Duration: 00:05:36.01, start: 0.000000, bitrate: 235 kb/s
Stream #0.0: Audio: mp3, 44100 Hz, 2 channels, s16, 32 kb/s

Text sample Text sample from Readme.nfo

Remember to visit:


http://thepiratebay.org/user/thegoldman


for latest MP3's, DVD Rip Videos etc...



Album Name: Ishqiya
Language: Hindi
Country: India
Bitrate: 320kbps VBR
Year: 2010
Genre: Soundtrack


Wikipedia URL: http://en.wikipedia.org/wiki/Ishqiya
IMDB uRL: http://www.imdb.com/title/tt1345777/


Cast:
Naseeruddin Shah ... as Khalujan
Arshad Warsi ... as Babban
Vidya Balan ... as Krishna
Salman Shahid ... as Mushtaq
Anupama Kumar ... as Manju

Music By: Vishal Bhardwaj
Lyrics : Gulzar


Track List:

01 Dil To Bachacha Hai
02 Ibn-E-Batuta
03 Ab Mujhe Koi
04 Badi Dheere Jali
05 Dil To Bachacha Hai (Remix)
06 Ibn-E-Batuta (Nucleya Remix)
07 Ibn-E-Batuta (Remix)


Special Features with this torrent:

No Registration Required
Totally Free
You Can Pass It On To Your Friends
No Unnecessary Watermarks And Irritating Tags
Very Nice Quality
Ideal For Putting Into A Collection If You Like It



If you like this stuff, then the best way to say thanks is...

Read full text


Contents of download:

60 megabyte in 10 files
Ishqiya Hindi Movie MP3 (Nicely Tagged)
  • Ishqiya/04 Badi Dheere Jali.mp3 (11 MB)
  • Ishqiya/01 Dil To Bachacha Hai.mp3 (9.4 MB)
  • Ishqiya/03 Ab Mujhe Koi.mp3 (9.1 MB)
  • Ishqiya/07 Ibn-E-Batuta (Remix).mp3 (7.9 MB)
  • Ishqiya/05 Dil To Bachacha Hai (Remix).mp3 (7.6 MB)
  • Ishqiya/06 Ibn-E-Batuta (Nucleya Remix).mp3 (7.5 MB)
  • Ishqiya/02 Ibn-E-Batuta.mp3 (6.7 MB)
  • Ishqiya/Back Cover.jpg (0.1 MB)
  • Ishqiya/CD Cover.jpg (91.5 KB)
  • Ishqiya/Readme.nfo (1.2 KB)

Comments:


Add report or comment (250 words maximum)

I'd like:  
Type text from captcha: