Our friends

Norma Jean - Meridional (Deluxe Edition) (2010) [JonnyBeans] torrent

Torrent info

Date 2012-01-16 12:46:00
Category Music
Hash ecbcbeaa56250f9ade768d7e9cb15a44d9e437ce
Seeds / Leechs -1 / -1 refresh
Full size 179 MB
Tracker http://tracker.publicbt.com/scrape
Tags norma jean meridional deluxe edition 2010 jonnybeans

Related torrents

Lil Wayne - Rebirth{Deluxe Edition}2010-LW
Lil.Wayne-Rebirth-Retail.Deluxe.Edition)-2010-NoFS
Omarion-Ollusion-Deluxe.Edition-2010-NoFS
Lil.Wayne-Gratuitous.Music-Deluxe.Edition-2010-NoFS

Torrent's content info

20 seconds audio samples

03 Deathbed Atheist_sample.mp3
Audio file info Duration: 00:05:06.62, start: 0.000000, bitrate: 325 kb/s
Stream #0.0: Audio: mp3, 44100 Hz, 2 channels, s16, 320 kb/s
13 Innocent Bystanders United _Inclu_sample.mp3
Audio file info Duration: 00:25:04.70, start: 0.000000, bitrate: 321 kb/s
Stream #0.0: Audio: mp3, 44100 Hz, 2 channels, s16, 320 kb/s
11 Occidental_sample.mp3
Audio file info Duration: 00:01:37.46, start: 0.000000, bitrate: 337 kb/s
Stream #0.0: Audio: mp3, 44100 Hz, 2 channels, s16, 320 kb/s
07 Blood Burner_sample.mp3
Audio file info Duration: 00:04:02.07, start: 0.000000, bitrate: 327 kb/s
Stream #0.0: Audio: mp3, 44100 Hz, 2 channels, s16, 320 kb/s

Contents of download:

179 megabyte in 16 files
Norma Jean - Meridional (Deluxe Edition) (2010) [JonnyBeans]
  • Norma Jean - Meridional [Deluxe Edition] (2010)/01 Leaderless And Self Enlisted.mp3 (7.8 MB)
  • Norma Jean - Meridional [Deluxe Edition] (2010)/02 The Anthem Of The Angry Brides.mp3 (6 MB)
  • Norma Jean - Meridional [Deluxe Edition] (2010)/03 Deathbed Atheist.mp3 (12 MB)
  • Norma Jean - Meridional [Deluxe Edition] (2010)/04 Bastardizer.mp3 (7.7 MB)
  • Norma Jean - Meridional [Deluxe Edition] (2010)/05 A Media Friendly Turn For The Wor.mp3 (10 MB)
  • Norma Jean - Meridional [Deluxe Edition] (2010)/06 Septentrional.mp3 (3.9 MB)
  • Norma Jean - Meridional [Deluxe Edition] (2010)/07 Blood Burner.mp3 (9.4 MB)
  • Norma Jean - Meridional [Deluxe Edition] (2010)/08 High Noise Low Output.mp3 (8.1 MB)
  • Norma Jean - Meridional [Deluxe Edition] (2010)/09 Falling From The Sky_ Day Seven.mp3 (15 MB)
  • Norma Jean - Meridional [Deluxe Edition] (2010)/10 Everlasting Tapeworm.mp3 (7.6 MB)
  • Norma Jean - Meridional [Deluxe Edition] (2010)/11 Occidental.mp3 (3.9 MB)
  • Norma Jean - Meridional [Deluxe Edition] (2010)/12 The People That Surround You On A.mp3 (8.6 MB)
  • Norma Jean - Meridional [Deluxe Edition] (2010)/13 Innocent Bystanders United _Inclu.mp3 (58 MB)
  • Norma Jean - Meridional [Deluxe Edition] (2010)/14 Kill More Presidents.mp3 (10 MB)
  • Norma Jean - Meridional [Deluxe Edition] (2010)/15 Deathbed Atheist (KC Blitz Remix).mp3 (11 MB)
  • Norma Jean - Meridional [Deluxe Edition] (2010)/Cov.jpg (1 MB)

Comments:


Add report or comment (250 words maximum)

I'd like:  
Type text from captcha: